Ссылка на приватное зеркало нашего сайта всего за 1$. Внимание количество ограничено!!!

2 сезон

iTunes

1 сезон

1

2 сезон

2 сезон

iTunes

1 сезон

RePack

30

Новинка

ВАЖНО

ИГРА 18+

pack

RePack

MK11
pack

Забери бонус

RePack

jed

!!Акция!!

Alien_Rage

RePack

fifa19

RePack

Assassins Creed: Odyssey

RePack

NEED FOR SPEED™ PAYBACK

4 сезон

9 сезон

Бесстыжие 9 сезон

Все сериалы

все сериалы на PB.wtf

RePack

FAR CRY 5
  

Гиппопотам / The Hippopotamus (Джон Дженкс) [2017 г., комедия, Blu-Ray Remux 1080p] [MVO] [Лицензия / iTunes] pb.wtf

Гиппопотам через торрент pb.wtf

Размер: 20.49 GB | Добавлен: 3 года 4 мес. назад | Торрент скачан:14 раз
Скачать  

28-07-2017 07:25 Гиппопотам Скачать торрент  

Гиппопотам / The Hippopotamus Страна: Великобритания
Производство: The Electric Shadow Company
Год выпуска: 2017
Жанр: комедия
Продолжительность: 01:29:20
Перевод: Профессиональный (многоголосый, закадровый) [Лицензия / iTunes]
Субтитры: english

Режиссер: Джон Дженкс
Авторы сценария: Стивен Фрай, Робин Хилл, Том Ходжсон

В ролях: Мэттью Модайн, Рассел Тови, Фиона Шоу, Роджер Аллам, Тим МакИннерни, Джеральдин Сомервилль, Эмили Беррингтон, Адриан Буше

Описание: Низвергнутый поэт, страстный любитель виски и дебошир Тэд Уоллес получает странное предложение от своей крестной дочери. Он должен отправиться в имение своего школьного друга, чтобы расследовать серию чудесных исцелений, всполошивших аристократическое семейство. В центре этих событий оказывается младший сын лорда Логан — ангельский подросток с необузданной сексуальной фантазией. Прожженный скептик и циник Тэд горит желанием вывести всех на чистую воду, однако разгадка «тайны без преступления» приводит к поразительным последствиям...




Качество: Blu-Ray Remux (1080p)
Формат: MKV
Видео кодек: AVC
Аудио кодек: АС3, DTS-HD
Видео: MPEG-4 AVC, 30.0 Mбит/с, 1920x1080, 24.000 fps
Аудио: 48.0 kHz, AC3 Dolby Digital, 3/2 (L,C,R,l,r) + LFE ch, ~384 kbps - MVO
Аудио: 48.0 kHz, DTS-HD MA, 6 ch, 3760 kbps - ENG
General
Unique ID : 205616619483887826679153606006679786013 (0x9AB0520931552339BF57B25600FFD21D)
Complete name : F:\Video\The.Hippopotamus.2017.BDREMUX.1080p.ExKinoRay.mkv
Format : Matroska
Format version : Version 4 / Version 2
File size : 20.5 GiB
Duration : 1 h 29 min
Overall bit rate : 32.8 Mb/s
Encoded date : UTC 2017-07-27 20:47:25
Writing application : mkvmerge v14.0.0 ('Flow') 64bit
Writing library : libebml v1.3.4 + libmatroska v1.4.5

Video
ID : 1
Format : AVC
Format/Info : Advanced Video Codec
Format profile : High@L4.1
Format settings, CABAC : Yes
Format settings, ReFrames : 4 frames
Codec ID : V_MPEG4/ISO/AVC
Duration : 1 h 29 min
Bit rate mode : Constant
Bit rate : 30.0 Mb/s
Width : 1 920 pixels
Height : 1 080 pixels
Display aspect ratio : 16:9
Frame rate mode : Constant
Frame rate : 24.000 FPS
Standard : NTSC
Color space : YUV
Chroma subsampling : 4:2:0
Bit depth : 8 bits
Scan type : Progressive
Bits/(Pixel*Frame) : 0.603
Stream size : 17.9 GiB (87%)
Language : English
Default : Yes
Forced : No
Color range : Limited
Color primaries : BT.709
Transfer characteristics : BT.709
Matrix coefficients : BT.709

Audio #1
ID : 2
Format : AC-3
Format/Info : Audio Coding 3
Format settings, Endianness : Big
Codec ID : A_AC3
Duration : 1 h 29 min
Bit rate mode : Constant
Bit rate : 384 kb/s
Channel(s) : 6 channels
Channel positions : Front: L C R, Side: L R, LFE
Sampling rate : 48.0 kHz
Frame rate : 31.250 FPS (1536 spf)
Bit depth : 16 bits
Compression mode : Lossy
Stream size : 245 MiB (1%)
Title : iTunes
Language : Russian
Service kind : Complete Main
Default : Yes
Forced : No

Audio #2
ID : 3
Format : DTS
Format/Info : Digital Theater Systems
Format profile : MA / Core
Mode : 16
Format settings, Endianness : Big
Codec ID : A_DTS
Duration : 1 h 29 min
Bit rate mode : Variable / Constant
Bit rate : 3 760 kb/s / 1 509 kb/s
Channel(s) : 6 channels
Channel positions : Front: L C R, Side: L R, LFE
Sampling rate : 48.0 kHz
Frame rate : 93.750 FPS (512 spf)
Bit depth : 24 bits
Compression mode : Lossless / Lossy
Stream size : 2.35 GiB (11%)
Title : Original
Language : English
Default : No
Forced : No

Text
ID : 4
Format : UTF-8
Codec ID : S_TEXT/UTF8
Codec ID/Info : UTF-8 Plain Text
Duration : 1 h 25 min
Bit rate : 77 b/s
Count of elements : 1571
Stream size : 48.2 KiB (0%)
Title : SDH
Language : English
Default : No
Forced : No

Menu
00:00:00.000 : en:00:00:00.000
00:02:21.958 : en:00:02:21.958
00:08:27.333 : en:00:08:27.333
00:14:43.000 : en:00:14:43.000
00:18:29.458 : en:00:18:29.458
00:25:19.916 : en:00:25:19.916
00:33:56.291 : en:00:33:56.291
00:39:09.625 : en:00:39:09.625
00:44:04.166 : en:00:44:04.166
00:50:00.208 : en:00:50:00.208
00:55:28.125 : en:00:55:28.125
00:59:55.500 : en:00:59:55.500
01:04:11.875 : en:01:04:11.875
01:10:58.125 : en:01:10:58.125
01:17:04.750 : en:01:17:04.750
01:22:31.041 : en:01:22:31.041
01:25:43.416 : en:01:25:43.416
скриншот   скриншот   скриншот  
pb.wtf



Скачать Гиппопотам через торрент http://s010.youpic.su/pictures/1501192800/8e9d235ed7e27326bb3d1a675584b084.png Скачать фильм Гиппопотам через торрент бесплантно в хорошем качестве Описание: Низвергнутый поэт, страстный любитель виски и дебошир Тэд Уоллес получает странное предложение от своей крестной дочери. Он ... 10 10 1
Торрент: Зарегистрирован [2017-07-28 07:25] · скачан: 14 раз
Статус: √ проверено
Размер: 20.49 GB
Как cкачать? Как скачать Гиппопотам через торрент | qTorrent

% Раздел Тема Автор DL S | L
Фильмы 2017 [DVDrip, WEB-DLRip, HDrip] (DUB, MVO) [ 1.37 GB ] Гиппопотам / The Hippopotamus [2017 HDRip] MVO bober100 Скачать
1 | 0
Фильмы [HD 720p, 1080p] (Хороший звук DUB, MVO) [ 4.18 GB ] Гиппопотам / The Hippopotamus [2017 BDRip 720p] MVO bober100 Скачать
1 | 0
Фильмы [HD 720p, 1080p] (Хороший звук DUB, MVO) [ 8.75 GB ] Гиппопотам / The Hippopotamus [2017 BDRip 1080p] MVO bober100 Скачать
1 | 0

28-11-2019 20:33  

Отключить всю рекламу на сайте

    Дорогой пользователь! Огромная просьба, поблагодарите релизера, оцените раздачу и оставьте свои комментарий, если Вы скачали Гиппопотам через торрент бесплатно! Внесите свою лепту в развитие PiratBit!
    Комментировать посты могут только пользователи прошедшие не сложную регистрацию
    Показать сообщения:    

    Гиппопотам через торрент
    Скачать бесплатно Гиппопотам
    Гиппопотам скачать торрент
    Гиппопотам смотреть онлайн
    Cкачать фильм Гиппопотам бесплатно
    Гиппопотам скачать торрент в хорошем качестве
    Гиппопотам смотреть онлайн бесплатно в хорошем качестве


    Вы не можете начинать темы
    Вы не можете отвечать на сообщения
    Вы не можете редактировать свои сообщения
    Вы не можете удалять свои сообщения
    Вы не можете голосовать в опросах
    Вы не можете прикреплять файлы к сообщениям
    Вы можете скачивать файлы