новый адрес
Ссылка на приватное зеркало всего за 1$. Внимание количество ограничено!!!

iTunes

1+1

iTunes

мы

iTunes

1

iTunes

Чернобыль

iTunes

Ральф против интернета

Лицензия

ПШазам

Лицензия

Оно 2

Лицензия

30
pack

Вам бонус

ВАЖНО

!!Акция!!

Alien_RageХит недели

RePack

Resident Evil 21

ИГРА 18+

pack

RePack

jed

!!Акция!!

Alien_Rage

RePack

fifa19

RePack

Assassins Creed: Odyssey

RePack

NEED FOR SPEED™ PAYBACK

3 сезон

9 сезон

Бесстыжие 9 сезон

Все сериалы

все сериалы на PB.wtf

RePack

FAR CRY 5
Ребята, катастрофически не хватает 1900р. для оплаты серверов за Октябрь (всвязи с блокировками трафик упал в 3 раза), 1-2р., выручайте.
  

Призрак в доспехах / Ghost in the Shell (Руперт Сандерс ) [2017, фантастика, боевик, триллер, BDRip 1080p от potroks] Dub [Лицензия] pb.wtf

Призрак в доспехах через торрент pb.wtf

Размер: 6.74 GB | Добавлен: 2 года 3 мес. назад | Торрент скачан:670 раз
Скачать  

28-07-2017 10:14 Призрак в доспехах Скачать торрент  

Призрак в доспехах / Ghost in the Shell

Год выпуска: 2017
Страна: США, Индия, Китай, Япония, Гонконг, Великобритания, Новая Зеландия, Канада, Австралия
Жанр: фантастика, боевик, триллер, драма, криминал, детектив
Продолжительность: 01:46:56
Перевод: Дубляж [Blu-ray CEE]
Субтитры: русские (полные + форс.), английские (Full + SDH + SDH-Colored)
Навигация по главам: есть

Режиссер: Руперт Сандерс
В ролях:

Скарлетт Йоханссон (Major), Йохан Филип Асбек (Batou), Такеши Китано (Aramaki), Жюльет Бинош (Dr. Ouelet), Майкл Питт (Kuze), Чин Хань (Togusa), Дануся Самал (Ladriya), Ласарус Ратуэре (Ishikawa), Ютака Идзумихара (Saito), Таванда Маниймо (Borma), Питер Фердинандо (Cutter), Анамария Маринка (Dr. Dahlin)

Описание: Кибер-технологии подчинили себе все сферы жизни, а самые опасные преступники переместились в виртуальное пространство. Киборг-гибрид, стоящий во главе элитного подразделения полиции, идет по следу могущественного хакера.



Качество: BDRip 1080p
Формат: MKV
Видео: AVC, 1920x1080 (16:9), 7754 kbps, 23,976 fps
Аудио №1: AC3 / 5.1 / 48 kHz / 640 kbps / 16 bit | RUS
Аудио №2: AC3 / 5.1 / 48 kHz / 640 kbps / 16 bit | ENG
General
Unique ID : 184994036254005840662932325441518972546 (0x8B2C8E2E65AD8F7AAF43713953642E82)
Complete name : D:\Prizrak.v.Dospehah.2017.DUAL.BDRip.1080p.-HELLYWOOD.mkv
Format : Matroska
Format version : Version 4 / Version 2
File size : 6.74 GiB
Duration : 1 h 46 min
Overall bit rate : 9 029 kb/s
Movie name : Ghost in the Shell (2017)
Encoded date : UTC 2017-07-28 09:32:52
Writing application : mkvmerge v5.9.0 ('On The Loose') built on Dec 15 2012 16:39:58
Writing library : libebml v1.3.0 + libmatroska v1.4.0

Video
ID : 1
Format : AVC
Format/Info : Advanced Video Codec
Format profile : High@L4.1
Format settings, CABAC : Yes
Format settings, ReFrames : 4 frames
Codec ID : V_MPEG4/ISO/AVC
Duration : 1 h 46 min
Bit rate : 7 754 kb/s
Width : 1 920 pixels
Height : 1 080 pixels
Display aspect ratio : 16:9
Frame rate mode : Constant
Frame rate : 23.976 (24000/1001) FPS
Color space : YUV
Chroma subsampling : 4:2:0
Bit depth : 8 bits
Scan type : Progressive
Bits/(Pixel*Frame) : 0.156
Stream size : 5.65 GiB (84%)
Title : potroks
Writing library : x264 core 146 r2538 121396c
Encoding settings : cabac=1 / ref=4 / deblock=1:-3:-3 / analyse=0x3:0x113 / me=umh / subme=11 / psy=1 / psy_rd=1.01:0.06 / mixed_ref=1 / me_range=48 / chroma_me=1 / trellis=2 / 8x8dct=1 / cqm=0 / deadzone=21,11 / fast_pskip=0 / chroma_qp_offset=-3 / threads=9 / lookahead_threads=2 / sliced_threads=0 / nr=0 / decimate=0 / interlaced=0 / bluray_compat=0 / constrained_intra=0 / bframes=9 / b_pyramid=2 / b_adapt=2 / b_bias=0 / direct=3 / weightb=1 / open_gop=0 / weightp=2 / keyint=240 / keyint_min=23 / scenecut=40 / intra_refresh=0 / rc_lookahead=60 / rc=2pass / mbtree=0 / bitrate=7754 / ratetol=1.0 / qcomp=0.70 / qpmin=0 / qpmax=69 / qpstep=4 / cplxblur=20.0 / qblur=0.5 / vbv_maxrate=14000 / vbv_bufsize=14000 / nal_hrd=none / filler=0 / ip_ratio=1.40 / pb_ratio=1.30 / aq=1:0.70
Language : English
Default : Yes
Forced : No

Audio #1
ID : 2
Format : AC-3
Format/Info : Audio Coding 3
Mode extension : CM (complete main)
Format settings, Endianness : Big
Codec ID : A_AC3
Duration : 1 h 46 min
Bit rate mode : Constant
Bit rate : 640 kb/s
Channel(s) : 6 channels
Channel positions : Front: L C R, Side: L R, LFE
Sampling rate : 48.0 kHz
Frame rate : 31.250 FPS (1536 spf)
Compression mode : Lossy
Stream size : 490 MiB (7%)
Title : Dub | DD 5.1 @ 640 kbps - Blu-ray CEE
Language : Russian
Default : Yes
Forced : No

Audio #2
ID : 3
Format : AC-3
Format/Info : Audio Coding 3
Mode extension : CM (complete main)
Format settings, Endianness : Big
Codec ID : A_AC3
Duration : 1 h 46 min
Bit rate mode : Constant
Bit rate : 640 kb/s
Channel(s) : 6 channels
Channel positions : Front: L C R, Side: L R, LFE
Sampling rate : 48.0 kHz
Frame rate : 31.250 FPS (1536 spf)
Compression mode : Lossy
Stream size : 490 MiB (7%)
Title : Original | DD 5.1 @ 640 kbps
Language : English
Default : No
Forced : No

Text #1
ID : 4
Format : UTF-8
Codec ID : S_TEXT/UTF8
Codec ID/Info : UTF-8 Plain Text
Title : Forced
Language : Russian
Default : Yes
Forced : No

Text #2
ID : 5
Format : UTF-8
Codec ID : S_TEXT/UTF8
Codec ID/Info : UTF-8 Plain Text
Title : iTunes
Language : Russian
Default : No
Forced : No

Text #3
ID : 6
Format : UTF-8
Codec ID : S_TEXT/UTF8
Codec ID/Info : UTF-8 Plain Text
Title : Full
Language : English
Default : No
Forced : No

Text #4
ID : 7
Format : UTF-8
Codec ID : S_TEXT/UTF8
Codec ID/Info : UTF-8 Plain Text
Title : SDH
Language : English
Default : No
Forced : No

Text #5
ID : 8
Format : UTF-8
Codec ID : S_TEXT/UTF8
Codec ID/Info : UTF-8 Plain Text
Title : SDH-Colored
Language : English
Default : No
Forced : No

Menu
00:00:00.000 : :00:00:00.000
00:08:09.322 : :00:08:09.322
00:14:39.962 : :00:14:39.962
00:21:26.494 : :00:21:26.494
00:28:02.681 : :00:28:02.681
00:34:13.217 : :00:34:13.218
00:39:27.615 : :00:39:27.615
00:43:57.802 : :00:43:57.802
00:51:49.815 : :00:51:49.815
00:55:19.066 : :00:55:19.066
01:01:06.872 : :01:01:06.872
01:07:49.732 : :01:07:49.732
01:14:36.972 : :01:14:36.972
01:20:31.744 : :01:20:31.744
01:27:46.178 : :01:27:46.178
01:33:41.407 : :01:33:41.407
01:38:00.083 : :01:38:00.083
pb.wtf



Скачать Призрак в доспехах через торрент http://i6.imageban.ru/out/2017/07/28/78dbd90b83d4fc34da876abf6ae7fdd9.png Скачать фильм Призрак в доспехах через торрент бесплантно в хорошем качестве Описание: Кибер-технологии подчинили себе все сферы жизни, а самые опасные преступники переместились в виртуальное пространство. ... 9.3 10 12
Info! Золотая раздача, скачанное не засчитывается.
Торрент: Зарегистрирован [2017-07-28 10:14] · скачан: 670 раз
Статус: √ проверено
Размер: 6.74 GB
Как cкачать? Как скачать Призрак в доспехах через торрент | qTorrent

% Раздел Тема Автор DL S | L
Ultra HD (UHD: 2K, 4K, 8K) — видео сверхвысокой чёткости [ 58.42 GB ] Призрак в доспехах / Ghost in the Shell [2017 UHD BDRemux 2160p] DUB + AVO [Ю. Немахов] sheker187 Скачать
1 | 0
Фильмы 2017 [DVDrip, WEB-DLRip, HDrip] (DUB, MVO) [ 746 MB ] Призрак в доспехах / Ghost in the Shell [2017 WEB-DLRip] bober100 Скачать
2 | 0
Ultra HD (UHD: 2K, 4K, 8K) — видео сверхвысокой чёткости [ 20.8 GB ] Призрак в доспехах / Ghost in the Shell [2017 UHD BDRip 2160p] [SDR] DUB sheker187 Скачать
1 | 0
Ultra HD (UHD: 2K, 4K, 8K) — видео сверхвысокой чёткости [ 12.17 GB ] Призрак в доспехах / Ghost in the Shell [2017 UHD BDRip 2160p] DUB [] sheker187 Скачать
1 | 0
Аниме (HD DVD и Blu-ray) [ 57.12 GB ] Призрак в доспехах / Koukaku Kidoutai / Ghost in the Shell [1995 аниме мультфильм UHD BDRemux 2160p] DUB + 2xDVO + 2xAVO sheker187 Скачать
1 | 0
Ultra HD (UHD: 2K, 4K, 8K) — видео сверхвысокой чёткости [ 55.19 GB ] Призрак в доспехах / Ghost in the Shell [2017 UHD BDRemux 2160p] DUB + AVO [Ю. Немахов] sheker187 Скачать
1 | 0
Аниме [DVDrip, WEB-DLRip, HDrip] [ 747 MB ] Призрак в доспехах / Kôkaku Kidôtai / Ghost in the Shell [1995 аниме мультфильм BDRip-AVC] [Dub DVO] sokol_ok Скачать
2 | 0


>> Переходим по ссылке <<
Автоматически подгузится скрипт который настроит ваш браузер на выигрыш!!
После настройки браузера вероятность выигрыша увеличется в 4.1-4,6 раза.
В течение 6 секунд вам откроется настроенный интерфейс казино, с повышенной вероятностью выигрыша.






Отзывы и комментарии о схеме читаем и пишем здесь: ---> Отзывы и комментарии о схеме

Новые благодарочки в телеграм довольных пользователей:
скриншот   скриншот   скриншот   скриншот   скриншот

30-07-2017 21:40 Призрак в доспехах Скачать торрент  

Ну и муть,разочаровалсяpb.wtf



    Дорогой пользователь! Огромная просьба, поблагодарите релизера, оцените раздачу и оставьте свои комментарий, если Вы скачали Призрак в доспехах через торрент бесплатно! Внесите свою лепту в развитие PiratBit!
    Комментировать посты могут только пользователи прошедшие не сложную регистрацию
    Показать сообщения:    

    Призрак в доспехах через торрент
    Скачать бесплатно Призрак в доспехах
    Призрак в доспехах скачать торрент
    Призрак в доспехах смотреть онлайн
    Cкачать фильм Призрак в доспехах бесплатно
    Призрак в доспехах скачать торрент в хорошем качестве
    Призрак в доспехах смотреть онлайн бесплатно в хорошем качестве


    Вы не можете начинать темы
    Вы не можете отвечать на сообщения
    Вы не можете редактировать свои сообщения
    Вы не можете удалять свои сообщения
    Вы не можете голосовать в опросах
    Вы не можете прикреплять файлы к сообщениям
    Вы можете скачивать файлы