Ссылка на приватное зеркало нашего сайта всего за 1$. Внимание количество ограничено!!!

2 сезон

iTunes

1 сезон

1

iTunes

iTunes

iTunes

1 сезон

RePack

30

ИГРА 18+

pack

ВАЖНО

!!Акция!!

Alien_RageХит недели

RePack

MK11
pack

Забери бонус

RePack

jed

!!Акция!!

Alien_Rage

RePack

fifa19

RePack

Assassins Creed: Odyssey

RePack

NEED FOR SPEED™ PAYBACK

4 сезон

9 сезон

Бесстыжие 9 сезон

Все сериалы

все сериалы на PB.wtf

RePack

FAR CRY 5
  

Враждебная зона / Zona hostil (Адольфо Мартинез Перез) [2017, военный, BDRip 720p] MVO [GreenРай Studio] pb.wtf

Враждебная зона через торрент pb.wtf

Размер: 2.79 GB | Добавлен: 3 года 2 мес. назад | Торрент скачан:189 раз
Скачать  

29-07-2017 07:56 Враждебная зона Скачать торрент  

Враждебная зона / Zona hostil
Год выпуска: 2017
Страна: Испания
Жанр: военный
Продолжительность: 01:33:33
Перевод: Любительский (многоголосый) - [GreenРай Studio]
Субтитры: отсутствуют

Режиссер: Адольфо Мартинез Перез

rating

В ролях:

Ариадна Хиль, Рауль Мерида, Роберто Аламо, Антонио Гарридо, Хакобо Дисента, Исмаэль Мартинес, Ингрид Гарсия Йонсон, Бенхамин Натан-Серио, Мариам Эрнандес, Берта Эрнандес

Описание:

Вертолёт медицинской эвакуации, экипаж которого помогает объединённым войскам США и ООН под руководством испанского подразделения в Афганистане, едва не разбивается при посадке. У испанской армии есть лишь одна ночь на эвакуацию экипажа и раненых, но рутина превращается в сущий ад — приходит приказ забрать и сам вертолёт. Ситуация осложняется ещё и ночным нападением большой группы талибанов.

Качество: BDRip 720p
Формат: MKV
Видео кодек: H.264
Аудио кодек: MP3

Видео: AVC, 1280x536 (2.40:1), 24.000 fps, 4 000 Кбит/с
Аудио#1: Русский (MP3, 2 ch, 320 Кбит/с)


скриншот   скриншот   скриншот  

Общее
Уникальный идентификатор : 194582430197904789154206125893725390685 (0x926336806A97A2308FA041A4E7CB075D)
Полное имя : D:\Zona.hostil.2017.P.BDRip.720p.mkv
Формат : Matroska
Версия формата : Version 4 / Version 2
Размер файла : 2,79 Гбайт
Продолжительность : 1 ч. 33 м.
Режим общего битрейта : Постоянный
Общий поток : 4276 Кбит/сек
Дата кодирования : UTC 2017-07-28 16:42:48
Программа кодирования : mkvmerge v8.3.0 ('Over the Horizon') 64bit
Библиотека кодирования : libebml v1.3.1 + libmatroska v1.4.2

Видео
Идентификатор : 1
Формат : AVC
Формат/Информация : Advanced Video Codec
Профиль формата : Main@L3.1
Параметр CABAC формата : Да
Параметр ReFrames формата : 3 кадра
Параметр GOP формата : M=4, N=15
Идентификатор кодека : V_MPEG4/ISO/AVC
Продолжительность : 1 ч. 33 м.
Вид битрейта : Постоянный
Битрейт : 4000 Кбит/сек
Ширина : 1280 пикселей
Высота : 536 пикселей
Соотношение сторон : 2,40:1
Режим частоты кадров : Постоянный
Частота кадров : 24,000 кадра/сек
Стандарт вещания : NTSC
Цветовое пространство : YUV
Субдискретизация насыщенности : 4:2:0
Битовая глубина : 8 бит
Тип развёртки : Прогрессивная
Бит/(Пиксели*Кадры) : 0.243
Размер потока : 2,58 Гбайт (92%)
Язык : English
Default : Да
Forced : Нет
Цветовой диапазон : Limited

Аудио
Идентификатор : 2
Формат : MPEG Audio
Версия формата : Version 1
Профиль формата : Layer 3
Режим : Joint stereo
Идентификатор кодека : A_MPEG/L3
Идентификатор кодека/Подсказка : MP3
Продолжительность : 1 ч. 33 м.
Вид битрейта : Постоянный
Битрейт : 320 Кбит/сек
Каналы : 2 канала
Частота : 48,0 КГц
Частота кадров : 41,667 кадра/сек (1152 spf)
Метод сжатия : С потерями
Размер потока : 214 Мбайт (7%)
Default : Да
Forced : Нет

pb.wtf



Скачать Враждебная зона через торрент http://s011.radikal.ru/i317/1707/95/50f2e79d6ecf.jpg Скачать фильм Враждебная зона через торрент бесплантно в хорошем качестве Описание: Вертолёт медицинской эвакуации, экипаж которого помогает объединённым войскам США и ООН под руководством испанского подразделения ... 8.8 10 4
Торрент: Зарегистрирован [2017-07-29 07:56] · скачан: 189 раз
Статус: # сомнительно
Размер: 2.79 GB
Как cкачать? Как скачать Враждебная зона через торрент | qTorrent

% Раздел Тема Автор DL S | L
T Фильмы 2017 [DVDrip, WEB-DLRip, HDrip] (DUB, MVO) [ 1.37 GB ] Враждебная зона / Zona hostil [2017 военный HDRip] MVO [GreenРай Studio] bober100 Скачать
1 | 0

28-11-2019 20:33  

Отключить всю рекламу на сайте

29-07-2017 18:11 Враждебная зона Скачать торрент  

Чо за такая? В кинотеатре был там не какой рекламы не было кроме трейлеров.
Автор ты чо куришь? Ты откуда высрал это рип?pb.wtf



29-07-2017 18:37 Враждебная зона Скачать торрент  

YRBALAY, Не нравится проходим мимо до кинотеатра и смотрим без рекламы.pb.wtf



    Дорогой пользователь! Огромная просьба, поблагодарите релизера, оцените раздачу и оставьте свои комментарий, если Вы скачали Враждебная зона через торрент бесплатно! Внесите свою лепту в развитие PiratBit!
    Комментировать посты могут только пользователи прошедшие не сложную регистрацию
    Показать сообщения:    

    Враждебная зона через торрент
    Скачать бесплатно Враждебная зона
    Враждебная зона скачать торрент
    Враждебная зона смотреть онлайн
    Cкачать фильм Враждебная зона бесплатно
    Враждебная зона скачать торрент в хорошем качестве
    Враждебная зона смотреть онлайн бесплатно в хорошем качестве


    Вы не можете начинать темы
    Вы не можете отвечать на сообщения
    Вы не можете редактировать свои сообщения
    Вы не можете удалять свои сообщения
    Вы не можете голосовать в опросах
    Вы не можете прикреплять файлы к сообщениям
    Вы можете скачивать файлы