Ссылка на приватное зеркало нашего сайта всего за 1$. Внимание количество ограничено!!!

2 сезон

iTunes

1 сезон

1

iTunes

iTunes

iTunes

1 сезон

RePack

30

ИГРА 18+

pack

ВАЖНО

!!Акция!!

Alien_RageХит недели

RePack

MK11
pack

Забери бонус

RePack

jed

!!Акция!!

Alien_Rage

RePack

fifa19

RePack

Assassins Creed: Odyssey

RePack

NEED FOR SPEED™ PAYBACK

4 сезон

9 сезон

Бесстыжие 9 сезон

Все сериалы

все сериалы на PB.wtf

RePack

FAR CRY 5
  

Паломничество / Pilgrimage (Брендан Малдауни) [2017, драма, приключения, BDRip 720p] MVO [GreenРай Studio] pb.wtf

Паломничество через торрент pb.wtf

Размер: 2.74 GB | Добавлен: 3 года 2 мес. назад | Торрент скачан:242 раза
Скачать  

29-07-2017 08:37 Паломничество Скачать торрент  

Паломничество / Pilgrimage
Год выпуска: 2017
Страна: Ирландия
Жанр: драма, приключения
Продолжительность: 01:36:29
Перевод: Любительский (многоголосый) - [GreenРай Studio]
Субтитры: английские (вшитые)

Режиссер: Брендан Малдауни

rating

В ролях:

Том Холланд, Джон Бернтал, Ричард Армитедж, Джон Линч, Стэнли Вебер, Хью О Конор, Лохлэйнн О Меарайн, Эрик Годон, Питер Косгров, Тристан МакКоннелл

Описание:

Ирландия. 1209 год. Остров на краю света. Небольшая группа монахов отправляется в вынужденное паломничество через остров, который рвут на части тянущаяся столетиями племенная война и растущая мощь нормандских захватчиков. Они сопровождают священную реликвию своего монастыря - камень, который использовался в мученичестве Святого Матиаса, тринадцатого апостола, в Рим. Путешествие монахов показано глазами благочестивых юных новичков и немого (или молчаливого) келейника с жестоким прошлым.
По мере их продвижения выясняется истинное материальное, политическое и религиозное значение драгоценной реликвии, и их путь к восточному побережью становится все более опасным. Монахи с опозданием понимают, что в этой дикой земле древних суеверий, вера, которая связывает их вместе, в конечном итоге может привести их к гибели.

Качество: BDRip 720p
Формат: MKV
Видео кодек: H.264
Аудио кодек: MP3

Видео: AVC, 1280x536 (2.40:1), 23.976 fps, 4 000 Кбит/с
Аудио#1: Русский (MP3, 2 ch, 320 Кбит/с)


скриншот   скриншот   скриншот  

Общее
Уникальный идентификатор : 178906217406628016615955872719827710909 (0x86981589CF17B47FACAE44BCCB0D33BD)
Полное имя : D:\Pilgrimage.2017.P.BDRip.720p.mkv
Формат : Matroska
Версия формата : Version 4 / Version 2
Размер файла : 2,74 Гбайт
Продолжительность : 1 ч. 36 м.
Режим общего битрейта : Постоянный
Общий поток : 4071 Кбит/сек
Дата кодирования : UTC 2017-07-28 17:30:00
Программа кодирования : mkvmerge v8.3.0 ('Over the Horizon') 64bit
Библиотека кодирования : libebml v1.3.1 + libmatroska v1.4.2

Видео
Идентификатор : 1
Формат : AVC
Формат/Информация : Advanced Video Codec
Профиль формата : Main@L3.1
Параметр CABAC формата : Да
Параметр ReFrames формата : 3 кадра
Идентификатор кодека : V_MPEG4/ISO/AVC
Продолжительность : 1 ч. 36 м.
Вид битрейта : Постоянный
Битрейт : 3749 Кбит/сек
Номинальный битрейт : 4000 Кбит/сек
Ширина : 1280 пикселей
Высота : 536 пикселей
Соотношение сторон : 2,40:1
Режим частоты кадров : Постоянный
Частота кадров : 23,976 (23976/1000) кадра/сек
Стандарт вещания : NTSC
Цветовое пространство : YUV
Субдискретизация насыщенности : 4:2:0
Битовая глубина : 8 бит
Тип развёртки : Прогрессивная
Бит/(Пиксели*Кадры) : 0.228
Размер потока : 2,53 Гбайт (92%)
Язык : English
Default : Да
Forced : Нет
Цветовой диапазон : Limited

Аудио
Идентификатор : 2
Формат : MPEG Audio
Версия формата : Version 1
Профиль формата : Layer 3
Режим : Joint stereo
Идентификатор кодека : A_MPEG/L3
Идентификатор кодека/Подсказка : MP3
Продолжительность : 1 ч. 36 м.
Вид битрейта : Постоянный
Битрейт : 320 Кбит/сек
Каналы : 2 канала
Частота : 48,0 КГц
Частота кадров : 41,667 кадра/сек (1152 spf)
Метод сжатия : С потерями
Размер потока : 221 Мбайт (8%)
Default : Да
Forced : Нет

pb.wtf



Скачать Паломничество через торрент http://i93.fastpic.ru/big/2017/0704/63/2d025d6476a8af7ce53e361fbf540863.jpg Скачать фильм Паломничество через торрент бесплантно в хорошем качестве Описание: Ирландия. 1209 год. Остров на краю света. Небольшая группа монахов отправляется в вынужденное паломничество через остров, который ... 10 10 4
Торрент: Зарегистрирован [2017-07-29 08:37] · скачан: 242 раз
Статус: # сомнительно
Размер: 2.74 GB
Как cкачать? Как скачать Паломничество через торрент | qTorrent

% Раздел Тема Автор DL S | L
Фильмы [HD 720p, 1080p] (Хороший звук DUB, MVO) [ 4.29 GB ] Паломничество / Pilgrimage [2017 BDRip 720p] MVO [Good People] VO [Парижанин] - ExKinoRay Enigma2010 Скачать
18 | 0
T Релизы по Парсеру [Игры, Сериалы и Фильмы и другое...] [ 1.37 GB ] Паломничество / Pilgrimage [2017 WEB-DLRip] MVO [@MUZOBOZ@] bober100 Скачать
1 | 0
T Фильмы 2017 [DVDrip, WEB-DLRip, HDrip] (DUB, MVO) [ 1.36 GB ] Паломничество / Pilgrimage [2017 HDRip] MVO [GreenРай Studio] bober100 Скачать
1 | 0

28-11-2019 20:33  

Отключить всю рекламу на сайте

29-07-2017 08:47 Паломничество Скачать торрент  

Какой 13 апостол ???????????????????????????pb.wtf



29-07-2017 12:16 Паломничество Скачать торрент  

а нельзя снять фильм, когда хорошими оказываются язычники, а монахи- говном? а то достало уже это засилье гребаных религиозных фанатиков...pb.wtf



    Дорогой пользователь! Огромная просьба, поблагодарите релизера, оцените раздачу и оставьте свои комментарий, если Вы скачали Паломничество через торрент бесплатно! Внесите свою лепту в развитие PiratBit!
    Комментировать посты могут только пользователи прошедшие не сложную регистрацию
    Показать сообщения:    

    Паломничество через торрент
    Скачать бесплатно Паломничество
    Паломничество скачать торрент
    Паломничество смотреть онлайн
    Cкачать фильм Паломничество бесплатно
    Паломничество скачать торрент в хорошем качестве
    Паломничество смотреть онлайн бесплатно в хорошем качестве


    Вы не можете начинать темы
    Вы не можете отвечать на сообщения
    Вы не можете редактировать свои сообщения
    Вы не можете удалять свои сообщения
    Вы не можете голосовать в опросах
    Вы не можете прикреплять файлы к сообщениям
    Вы можете скачивать файлы