Ссылка на приватное зеркало нашего сайта всего за 1$. Внимание количество ограничено!!!

2 сезон

iTunes

1 сезон

1

2 сезон

2 сезон

iTunes

1 сезон

RePack

30

Ultimate

ВАЖНО

ИГРА 18+

pack

RePack

MK11
pack

Забери бонус

RePack

jed

!!Акция!!

Alien_Rage

RePack

fifa19

RePack

Assassins Creed: Odyssey

RePack

NEED FOR SPEED™ PAYBACK

4 сезон

9 сезон

Бесстыжие 9 сезон

Все сериалы

все сериалы на PB.wtf

RePack

FAR CRY 5
  

Мгла / The Mist / Сезон: 1 / Серии 1-10 из 10 (Адам Бернштейн, Гай Ферленд, Ричард Лэкстон) [2017, Ужасы, драма, WEBRip] [MVO] (Jaskier) pb.wtf

Мгла через торрент pb.wtf

Размер: 5.52 GB | Добавлен: 3 года 3 мес. назад | Торрент скачан:121 раз
Скачать  

29-07-2017 18:10 Мгла Скачать торрент  

Мгла | The Mist Год выпуска: 2017
Страна: США
Жанр: Ужасы, драма
Продолжительность: ~ 00:43:00
Перевод: Профессиональный (многоголосый закадровый) | Jaskier

Режиссёр: Адам Бернштейн, Гай Ферленд, Ричард Лэкстон

В ролях: Алисса Сазерленд, Исайя Уитлок мл., Билл Карр, Гас Бирни, Люк Косгров, Грег Ованессян, Дарси Линдсон, Александра Ордолис, Лола Флэнери и др.

Описание: После того, как небольшой городок накрыл таинственный и жуткий туман, жители этого городка сражаются с туманом и опасностями, скрывающимися в нём, пытаясь сохранить рассудок и нравственность.



Качество: WEBRip
Формат: AVI
Видео: XviD, ~ 1500 kbps, 720x400 (16:9), 23.976 fps
Аудио 1: MP3, 48,0 КГц, 2 ch, 128 kbps - Rus
Аудио 2: MP3, 48,0 КГц, 2 ch, 128 kbps - Eng
Субтитры: отсутствуют
Переведено и озвучено: студией Jaskier
Общее
Полное имя                               : E:\JASKiER\The Mist. Season 1 (WEBRip l 400p l Jaskier)\The.Mist.S01E01.WEBRip.Rus.Eng.Jaskier.avi
Формат                                   : AVI
Формат/Информация                        : Audio Video Interleave
Размер файла                             : 550 Мбайт
Продолжительность                        : 44 м. 0 с.
Общий поток                              : 1749 Кбит/сек
Программа кодирования                    : VirtualDubMod 1.5.10.3 | www.virtualdub-fr.org || (build 2550/release)
Библиотека кодирования                   : VirtualDubMod build 2550/release

Видео
Идентификатор                            : 0
Формат                                   : MPEG-4 Visual
Профиль формата                          : Advanced Simple@L5
Параметр BVOP формата                    : 1
Параметр QPel формата                    : Нет
Параметр GMC формата                     : Без точки перехода
Параметр матрицы формата                 : Default (MPEG)
Идентификатор кодека                     : XVID
Идентификатор кодека/Подсказка           : XviD
Продолжительность                        : 44 м. 0 с.
Битрейт                                  : 1479 Кбит/сек
Ширина                                   : 720 пикселей
Высота                                   : 400 пикселей
Соотношение сторон                       : 16:9
Частота кадров                           : 23,976 (24000/1001) кадра/сек
Цветовое пространство                    : YUV
Субдискретизация насыщенности            : 4:2:0
Битовая глубина                          : 8 бит
Тип развёртки                            : Прогрессивная
Метод сжатия                             : С потерями
Бит/(Пиксели*Кадры)                      : 0.214
Размер потока                            : 465 Мбайт (85%)
Библиотека кодирования                   : XviD 73

Аудио #1
Идентификатор                            : 1
Формат                                   : MPEG Audio
Версия формата                           : Version 1
Профиль формата                          : Layer 3
Режим                                    : Joint stereo
Расширение режима                        : MS Stereo
Идентификатор кодека                     : 55
Идентификатор кодека/Подсказка           : MP3
Продолжительность                        : 44 м. 0 с.
Вид битрейта                             : Постоянный
Битрейт                                  : 128 Кбит/сек
Каналы                                   : 2 канала
Частота                                  : 48,0 КГц
Метод сжатия                             : С потерями
Размер потока                            : 40,3 Мбайт (7%)
Выравнивание                             : Соединение по промежуткам
Продолжительность промежутка             : 42  мс. (1,00 видеокадр)
Время предзагрузки промежутка            : 504  мс.

Аудио #2
Идентификатор                            : 2
Формат                                   : MPEG Audio
Версия формата                           : Version 1
Профиль формата                          : Layer 3
Режим                                    : Joint stereo
Расширение режима                        : MS Stereo
Идентификатор кодека                     : 55
Идентификатор кодека/Подсказка           : MP3
Продолжительность                        : 44 м. 0 с.
Вид битрейта                             : Постоянный
Битрейт                                  : 128 Кбит/сек
Каналы                                   : 2 канала
Частота                                  : 48,0 КГц
Метод сжатия                             : С потерями
Размер потока                            : 40,3 Мбайт (7%)
Выравнивание                             : Соединение по промежуткам
Продолжительность промежутка             : 42  мс. (1,00 видеокадр)
Время предзагрузки промежутка            : 504  мс.
скриншот   скриншот   скриншот  
Когда раздача ведётся путём добавления новых серий, при каждом добавлении создётся новый торрент. Чтобы начать докачку новой серии, пользователям необходимо сделать следующее:
(1) остановить скачивание,
(2) удалить старый торрент у себя из клиента (старые серии удалять не надо),
(3) скачать новый торрент и запустить его у себя в клиенте вместо старого, при этом указать клиенту путь в старую папку, куда и должно происходить скачивание новых серий.
Ваш клиент при этом должен произвести хеширование (проверку) старой папки (если не производит сам - помогите ему сделать это), и будет докачивать только те серии, которых у вас ещё нет. Старые серии при этом не удаляются, а продолжают раздаваться!
Eсли вы уже удалили старые серии, то предотвратить повторную закачку старых серий можно, отжав галочку в соответсвующих местах при запуске нового торрента. По возможности, желательно не удалять старые серии как можно дольше, чтобы релизёр не столько продолжал раздавать старые серии, а смог сконцентрироваться на новых.
pb.wtf



Скачать Мгла через торрент http://i93.fastpic.ru/big/2017/0624/3c/447d4621166978d005766d7ba52c0c3c.png Скачать фильм Мгла через торрент бесплантно в хорошем качестве Описание: После того, как небольшой городок накрыл таинственный и жуткий туман, жители этого городка сражаются с туманом и опасностями, ... 10 10 3
Торрент: Зарегистрирован [2017-09-04 10:58] · скачан: 121 раз
Статус: √ проверено
Размер: 5.52 GB
Как cкачать? Как скачать Мгла через торрент | qTorrent

% Раздел Тема Автор DL S | L
Зарубежные сериалы [ 11.16 GB ] Мгла / The Mist / Сезон: 1 / Серии 1-10 из 10 [2017 WEBRip 1080p] [MVO] killermax2013 Скачать
1 | 0
Зарубежные сериалы [ 12.82 GB ] Мгла / The Mist / Сезон 1 / Серии 1-10 из 10 [2017 WEB-DL 720p] MVO [LostFilm] bober100 Скачать
1 | 0
Зарубежные сериалы [ 14.26 GB ] Мгла / The Mist / Сезон 1 / Серии 1-10 из 10 [2017 WEB-DL 1080p WEBRip 1080p] MVO [NewStudio] bober100 Скачать
1 | 0
Зарубежные сериалы [ 6.66 GB ] Мгла / Туман / The Mist / Сезон: 1 / Серии 1-10 из 10 [2017 WEBRip-AVC WEB-DLRip-AVC] MVO [BaibaKo] GEKADOL Скачать
1 | 0

28-11-2019 20:33  

Отключить всю рекламу на сайте

04-09-2017 10:59 Мгла Скачать торрент  

+7-10pb.wtf



04-09-2017 12:50 Мгла Скачать торрент  

как сериал вообще?pb.wtf



23-09-2018 11:19 Мгла Скачать торрент  

продолжение будет?pb.wtf



24-09-2018 09:35 Мгла Скачать торрент  

petr20 писал(а):

продолжение будет?

будетpb.wtf



    Дорогой пользователь! Огромная просьба, поблагодарите релизера, оцените раздачу и оставьте свои комментарий, если Вы скачали Мгла через торрент бесплатно! Внесите свою лепту в развитие PiratBit!
    Комментировать посты могут только пользователи прошедшие не сложную регистрацию
    Показать сообщения:    

    Мгла через торрент
    Скачать бесплатно Мгла
    Мгла скачать торрент
    Мгла смотреть онлайн
    Cкачать фильм Мгла бесплатно
    Мгла скачать торрент в хорошем качестве
    Мгла смотреть онлайн бесплатно в хорошем качестве


    Вы не можете начинать темы
    Вы не можете отвечать на сообщения
    Вы не можете редактировать свои сообщения
    Вы не можете удалять свои сообщения
    Вы не можете голосовать в опросах
    Вы не можете прикреплять файлы к сообщениям
    Вы можете скачивать файлы