Ссылка на приватное зеркало нашего сайта всего за 1$. Внимание количество ограничено!!!

2 сезон

iTunes

1 сезон

1

iTunes

iTunes

iTunes

1 сезон

RePack

30

ИГРА 18+

pack

ВАЖНО

!!Акция!!

Alien_RageХит недели

RePack

MK11
pack

Забери бонус

RePack

jed

!!Акция!!

Alien_Rage

RePack

fifa19

RePack

Assassins Creed: Odyssey

RePack

NEED FOR SPEED™ PAYBACK

4 сезон

9 сезон

Бесстыжие 9 сезон

Все сериалы

все сериалы на PB.wtf

RePack

FAR CRY 5
  

Соучастник / Collateral (Майкл Манн / Michael Mann) [2004, триллер, драма, криминал, BDRip 1080p] [Dub] + [MVO] + [DVO] + [AVO] pb.wtf

Соучастник через торрент pb.wtf

Раздают: 2 [ 32 KB/s ]
Размер: 20.64 GB | Добавлен: 3 года 2 мес. назад | Торрент скачан:152 раза
Скачать  

29-07-2017 20:55 Соучастник Скачать торрент  

Соучастник / Collateral
Год выпуска: 2004
Страна: США
Жанр: Триллер, драма, криминал
Продолжительность: 01:59:56
Перевод 1: Профессиональный (полное дублирование)
Перевод 2: Профессиональный (многоголосый)
Перевод 3: Профессиональный (двухголосый)
Перевод 4: Авторский (одноголосый) Андрей Гаврилов

Субтитры: Russian, English
Режиссер: Майкл Манн / Michael Mann

В ролях: Том Круз, Джейми Фокс, Питер Берг, Ричард Т. Джонс, Марк Руффало, Джейсон Стэтхэм, Ирма П. Холл, Клеа Скотт, Майкл Бент, Томас Розалес-мл., Пол Эделстайн, Джессика Феррарон, Трой Бленделл, Чик Дэниэл, Жонелль Кеннеди, Стивен Козловски, Роджер Стоунбернер, Эдди Диаз, Джои Барнс, Джон Конвертино, Джош Круз, Анджело Тиффе, Луис Монкада, Майкл-Джон Вульф, Эдди Юнгми, Брэндон Молэйл, Спайк Сильвер, Аннабель Гутман, Марк Кубр, Тони Сагастизадо, Чарли Э. Шмидт мл., Джада Пинкетт Смит

Описание: Наемный убийца Винсент берет такси, чтобы совершить несколько убийств в Лос-Анджелесе. Поначалу киллер кажется шоферу Максу обычным пассажиром, но когда водитель видит первый труп, он понимает, в какую передрягу попал. Винсент угрожает ему смертью, а полиция считает Макса причастным к преступлениям...


Рип by: EuReKA

Качество: BDRip 1080p
Формат: MKV
Видео кодек: H.264
Аудио кодек: AC3 DTS
Видео: 1920 x 800, 23.976 fps, ~19048 Kbps
Аудио#1: Russian AC3, 6 ch, 448 Kbps, 48.0 KHz |Дубляж R5|
Аудио#2: Russian AC3, 6 ch, 448 Kbps, 48.0 KHz |Tycoon-studio|
Аудио#3: Russian DTS, 6ch, 1 510 Kbps, 48.0 KHz |Гаврилов|
Аудио#4: Russian DTS, 6ch, 1 510 Kbps, 48.0 KHz |MVO|
Аудио#5: English DTS, 6ch, 1 510 Kbps, 48.0 KHz |English|
Аудио#6: English AC3, 2 ch, 224 Kbps, 48.0 KHz |Commentary by Michael Mann|
Субтитры: Russian (sunny-sko), Russian (Andrew Gantsevich)(содержит ненормативную лексику), Russian (White Snake, SDH), Russian (Commentary by Director Michael Mann[), English
скриншот  скриншот  скриншот  
General
Complete name : C:\Internet\Скаченное torrents & DC\HD movies\Collateral (2004)[BluRay.1080p].mkv
Format : Matroska
File size : 20.6 GiB
Duration : 1h 59mn
Overall bit rate : 24.6 Mbps
Encoded date : UTC 2010-04-05 08:26:21
Writing application : mkvmerge v3.2.0 ('Beginnings') built on Feb 12 2010 16:46:17
Writing library : libebml v0.7.9 + libmatroska v0.8.1

Video
ID : 1
Format : AVC
Format/Info : Advanced Video Codec
Format profile : High@L4.1
Format settings, CABAC : Yes
Format settings, ReFrames : 5 frames
Muxing mode : Container profile=Unknown@4.1
Codec ID : V_MPEG4/ISO/AVC
Duration : 1h 59mn
Bit rate : 18.5 Mbps
Nominal bit rate : 19.0 Mbps
Width : 1 920 pixels
Height : 800 pixels
Display aspect ratio : 2.40:1
Frame rate : 23.976 fps
Resolution : 8 bits
Colorimetry : 4:2:0
Scan type : Progressive
Bits/(Pixel*Frame) : 0.502
Stream size : 15.5 GiB (75%)
Title : EuReKA
Writing library : x264 core 92 r1510 33d382a
Encoding settings : cabac=1 / ref=5 / deblock=1:-2:-2 / analyse=0x3:0x113 / me=umh / subme=10 / psy=1 / psy_rd=1.00:0.00 / mixed_ref=1 / me_range=64 / chroma_me=1 / trellis=2 / 8x8dct=1 / cqm=0 / deadzone=21,11 / fast_pskip=0 / chroma_qp_offset=-2 / threads=12 / sliced_threads=0 / nr=0 / decimate=1 / interlaced=0 / constrained_intra=0 / bframes=5 / b_pyramid=2 / b_adapt=2 / b_bias=0 / direct=2 / wpredb=1 / wpredp=2 / keyint=250 / keyint_min=25 / scenecut=40 / intra_refresh=0 / rc_lookahead=0 / rc=2pass / mbtree=0 / bitrate=19048 / ratetol=1.0 / qcomp=0.80 / qpmin=10 / qpmax=51 / qpstep=4 / cplxblur=20.0 / qblur=0.5 / vbv_maxrate=38000 / vbv_bufsize=30000 / ip_ratio=1.40 / pb_ratio=1.30 / aq=1:0.70 / nal_hrd=none
Language : English

Audio #1
ID : 2
Format : AC-3
Format/Info : Audio Coding 3
Codec ID : A_AC3
Duration : 1h 59mn
Bit rate mode : Constant
Bit rate : 448 Kbps
Channel(s) : 6 channels
Channel positions : Front: L C R, Side: L R, LFE
Sampling rate : 48.0 KHz
Stream size : 384 MiB (2%)
Title : Dub R5
Language : Russian

Audio #2
ID : 3
Format : AC-3
Format/Info : Audio Coding 3
Codec ID : A_AC3
Duration : 1h 59mn
Bit rate mode : Constant
Bit rate : 448 Kbps
Channel(s) : 6 channels
Channel positions : Front: L C R, Side: L R, LFE
Sampling rate : 48.0 KHz
Stream size : 384 MiB (2%)
Title : Tycoon-studio
Language : Russian

Audio #3
ID : 4
Format : DTS
Format/Info : Digital Theater Systems
Codec ID : A_DTS
Duration : 1h 59mn
Bit rate mode : Constant
Bit rate : 1 510 Kbps
Channel(s) : 6 channels
Channel positions : Front: L C R, Side: L R, LFE
Sampling rate : 48.0 KHz
Resolution : 24 bits
Stream size : 1.26 GiB (6%)
Title : Gavrilov
Language : Russian

Audio #4
ID : 5
Format : DTS
Format/Info : Digital Theater Systems
Codec ID : A_DTS
Duration : 1h 59mn
Bit rate mode : Constant
Bit rate : 1 510 Kbps
Channel(s) : 6 channels
Channel positions : Front: L C R, Side: L R, LFE
Sampling rate : 48.0 KHz
Resolution : 24 bits
Stream size : 1.26 GiB (6%)
Title : MVO
Language : Russian

Audio #5
ID : 6
Format : DTS
Format/Info : Digital Theater Systems
Codec ID : A_DTS
Duration : 1h 59mn
Bit rate mode : Constant
Bit rate : 1 510 Kbps
Channel(s) : 6 channels
Channel positions : Front: L C R, Side: L R, LFE
Sampling rate : 48.0 KHz
Resolution : 24 bits
Stream size : 1.26 GiB (6%)
Title : English
Language : English

Audio #6
ID : 7
Format : AC-3
Format/Info : Audio Coding 3
Format profile : Dolby Digital
Codec ID : A_AC3
Duration : 1h 59mn
Bit rate mode : Constant
Bit rate : 224 Kbps
Channel(s) : 2 channels
Channel positions : Front: L R
Sampling rate : 48.0 KHz
Stream size : 192 MiB (1%)
Title : Commentary by Michael Mann
Language : English

Text #1
ID : 8
Format : UTF-8
Codec ID : S_TEXT/UTF8
Codec ID/Info : UTF-8 Plain Text
Title : sunny-sko
Language : Russian

Text #2
ID : 9
Format : UTF-8
Codec ID : S_TEXT/UTF8
Codec ID/Info : UTF-8 Plain Text
Title : Andrew Gantsevich
Language : Russian

Text #3
ID : 10
Format : UTF-8
Codec ID : S_TEXT/UTF8
Codec ID/Info : UTF-8 Plain Text
Title : White Snake, SDH
Language : Russian

Text #4
ID : 11
Format : UTF-8
Codec ID : S_TEXT/UTF8
Codec ID/Info : UTF-8 Plain Text
Title : Commentary by Director Michael Mann
Language : Russian

Text #5
ID : 12
Format : UTF-8
Codec ID : S_TEXT/UTF8
Codec ID/Info : UTF-8 Plain Text
Language : English
pb.wtf



Скачать Соучастник через торрент http://i014.radikal.ru/1004/e8/2663a43b0fa9.png Скачать фильм Соучастник через торрент бесплантно в хорошем качестве Описание: Наемный убийца Винсент берет такси, чтобы совершить несколько убийств в Лос-Анджелесе. Поначалу киллер кажется шоферу Максу ... 10 10 3
Торрент: Зарегистрирован [2017-07-29 20:55] · скачан: 152 раз
Статус: √ проверено
Размер: 20.64 GB
Как cкачать? Как скачать Соучастник через торрент | qTorrent

% Раздел Тема Автор DL S | L
Фильмы 2001-2005 [ 2.18 GB ] Соучастник / Collateral [2004 BDRip DUB + MVO + Оригинал] bogyn Скачать
3 | 0
Зарубежные сериалы [ 2.6 GB ] Соучастник / Collateral / Сезон: 1 / Серия 1-4 из 4 [2018 WEBRip] MVO [BaibaKo] GEKADOL Скачать
1 | 0
Фильмы 2001-2005 [ 1.45 GB ] Соучастник / Collateral [2004 HDRip] art1san Скачать
1 | 0
Фильмы 2001-2005 [ 1.86 GB ] Соучастник / Collateral [2004 BDRip] m9sо Скачать
1 | 0

28-11-2019 20:33  

Отключить всю рекламу на сайте

    Дорогой пользователь! Огромная просьба, поблагодарите релизера, оцените раздачу и оставьте свои комментарий, если Вы скачали Соучастник через торрент бесплатно! Внесите свою лепту в развитие PiratBit!
    Комментировать посты могут только пользователи прошедшие не сложную регистрацию
    Показать сообщения:    

    Соучастник через торрент
    Скачать бесплатно Соучастник
    Соучастник скачать торрент
    Соучастник смотреть онлайн
    Cкачать фильм Соучастник бесплатно
    Соучастник скачать торрент в хорошем качестве
    Соучастник смотреть онлайн бесплатно в хорошем качестве


    Вы не можете начинать темы
    Вы не можете отвечать на сообщения
    Вы не можете редактировать свои сообщения
    Вы не можете удалять свои сообщения
    Вы не можете голосовать в опросах
    Вы не можете прикреплять файлы к сообщениям
    Вы можете скачивать файлы