Ссылка на приватное зеркало нашего сайта всего за 1$. Внимание количество ограничено!!!

2 сезон

iTunes

1 сезон

1

iTunes

iTunes

iTunes

1 сезон

RePack

30

ИГРА 18+

pack

ВАЖНО

!!Акция!!

Alien_RageХит недели

RePack

MK11
pack

Забери бонус

RePack

jed

!!Акция!!

Alien_Rage

RePack

fifa19

RePack

Assassins Creed: Odyssey

RePack

NEED FOR SPEED™ PAYBACK

4 сезон

9 сезон

Бесстыжие 9 сезон

Все сериалы

все сериалы на PB.wtf

RePack

FAR CRY 5
  

«Серая Дама» уходит на глубину / Gray Lady Down (Дэвид Грин) [1978, триллер, драма, BDRip 1080p by msltel] DVO pb.wtf

«Серая Дама» уходит на глубину через торрент pb.wtf

Размер: 10.61 GB | Добавлен: 3 года 2 мес. назад | Торрент скачан:8 раз
Скачать  

30-07-2017 07:53 «Серая Дама» уходит на глубину Скачать торрент  

Название: «Серая Дама» уходит на глубину
Оригинальное название: Gray Lady Down
Год выпуска: 1978
Страна: США
Жанр: триллер, драма
Продолжительность: 01:50:13
Перевод: профессиональный двухголосый

Режиссер: Дэвид Грин
В ролях: Чарлтон Хестон, Дэвид Кэрредин, Стейси Кич, Нед Битти, Стивен МакХэтти, Ронни Кокс, Дориан Хэрвуд, Розмари Форсайт, Хилли Хикс, Чарльз Чоффи

О фильме: Возвращаясь в порт, в тумане подводная лодка сталкивается с большим грузовым кораблём и погружается на океанское дно. Подоспевший военный спасательный корабль не может поднять лодку из-за её положения на дне. Помочь в спасении команды должна небольшая экспериментальная субмарина...



Качество: BDRip 1080p
Формат: MKV
Видео: MPEG-4 AVC, 12.8 Mбит/с, 1920x818, 23.976 кадр/с
Аудио 1: русский, AC3, 192 kbps, 2 ch, 48 kHz [профессиональный двухголосый, HTB]
Аудио 2: английский, DTS, 768 kbps, 2 ch, 48 kHz [оригинал]
Имеются неименованные главы/чаптеры.
Общее
Уникальный идентификатор : 241178384287493939271706808831636650465 (0xB5714468C7C6BDE1AD783824228BB9E1)
Полное имя : D:\Video\Серая дама.1978.BDRip.1080p by msltel.mkv
Формат : Matroska
Версия формата : Version 4 / Version 2
Размер файла : 10,6 Гбайт
Продолжительность : 1 ч. 50 м.
Общий поток : 13,8 Мбит/сек
Название фильма : Rip by msltel
Дата кодирования : UTC 2017-07-27 13:47:49
Программа кодирования : mkvmerge v8.2.0 ('World of Adventure') 64bit
Библиотека кодирования : libebml v1.3.1 + libmatroska v1.4.2

Видео
Идентификатор : 1
Формат : AVC
Формат/Информация : Advanced Video Codec
Профиль формата : High@L4.1
Параметр CABAC формата : Да
Параметр ReFrames формата : 4 кадра
Идентификатор кодека : V_MPEG4/ISO/AVC
Продолжительность : 1 ч. 50 м.
Битрейт : 12,8 Мбит/сек
Ширина : 1920 пикселей
Высота : 818 пикселей
Соотношение сторон : 2,35:1
Режим частоты кадров : Постоянный
Частота кадров : 23,976 (24000/1001) кадра/сек
Цветовое пространство : YUV
Субдискретизация насыщенности : 4:2:0
Битовая глубина : 8 бит
Тип развёртки : Прогрессивная
Бит/(Пиксели*Кадры) : 0.340
Размер потока : 9,87 Гбайт (93%)
Библиотека кодирования : x264 core 146 r2538 121396c
Настройки программы : cabac=1 / ref=4 / deblock=1:-3:-2 / analyse=0x3:0x113 / me=umh / subme=11 / psy=1 / psy_rd=1.00:0.15 / mixed_ref=1 / me_range=32 / chroma_me=1 / trellis=2 / 8x8dct=1 / cqm=0 / deadzone=21,11 / fast_pskip=0 / chroma_qp_offset=-3 / threads=6 / lookahead_threads=1 / sliced_threads=0 / nr=0 / decimate=1 / interlaced=0 / bluray_compat=0 / constrained_intra=0 / bframes=11 / b_pyramid=2 / b_adapt=2 / b_bias=0 / direct=1 / weightb=1 / open_gop=0 / weightp=2 / keyint=230 / keyint_min=23 / scenecut=40 / intra_refresh=0 / rc_lookahead=40 / rc=crf / mbtree=0 / crf=20.2 / qcomp=0.60 / qpmin=0 / qpmax=69 / qpstep=4 / vbv_maxrate=62500 / vbv_bufsize=78125 / crf_max=0.0 / nal_hrd=none / filler=0 / ip_ratio=1.40 / pb_ratio=1.30 / aq=1:1.00
Язык : English
Default : Да
Forced : Нет

Аудио #1
Идентификатор : 2
Формат : AC-3
Формат/Информация : Audio Coding 3
Параметр Endianness формата : Big
Идентификатор кодека : A_AC3
Продолжительность : 1 ч. 50 м.
Вид битрейта : Постоянный
Битрейт : 192 Кбит/сек
Каналы : 2 канала
Расположение каналов : Front: L R
Частота : 48,0 КГц
Частота кадров : 31,250 кадров/сек (1536 spf)
Битовая глубина : 16 бит
Метод сжатия : С потерями
Размер потока : 151 Мбайт (1%)
Заголовок : DVO (HTB)
Язык : Russian
ServiceKind/String : Complete Main
Default : Да
Forced : Нет

Аудио #2
Идентификатор : 3
Формат : DTS
Формат/Информация : Digital Theater Systems
Режим : 16
Параметр Endianness формата : Big
Идентификатор кодека : A_DTS
Продолжительность : 1 ч. 50 м.
Вид битрейта : Постоянный
Битрейт : 768 Кбит/сек
Каналы : 2 канала
Расположение каналов : Front: L R
Частота : 48,0 КГц
Частота кадров : 93,750 кадра/сек (512 spf)
Битовая глубина : 16 бит
Метод сжатия : С потерями
Размер потока : 606 Мбайт (6%)
Заголовок : original
Язык : English
Default : Нет
Forced : Нет

Меню
00:00:00.000 : :Chapter 01
00:16:39.415 : :Chapter 02
00:27:26.895 : :Chapter 03
00:42:25.668 : :Chapter 04
00:54:10.872 : :Chapter 05
01:08:42.952 : :Chapter 06
01:23:49.314 : :Chapter 07
01:41:09.229 : :Chapter 08
01:50:13.273 : :Chapter 09
pb.wtf



Скачать «Серая Дама» уходит на глубину через торрент http://s019.radikal.ru/i636/1707/bd/fb64c8475990.jpg Скачать фильм «Серая Дама» уходит на глубину через торрент бесплантно в хорошем качестве О фильме: Возвращаясь в порт, в тумане подводная лодка сталкивается с большим грузовым кораблём и погружается на океанское дно. Подоспевший ... 5 10 1
Info! Золотая раздача, скачанное не засчитывается.
Торрент: Зарегистрирован [2017-07-30 07:53] · скачан: 8 раз
Статус: √ проверено
Размер: 10.61 GB
Как cкачать? Как скачать «Серая Дама» уходит на глубину через торрент | qTorrent

% Раздел Тема Автор DL S | L
R.G. Resident & PiratVoice - Фильмы, Видео [ 14.43 GB ] «Серая Дама» уходит на глубину / Gray Lady Down [1978 BDRip 1080p] DVO - R.G.Resident schultz Скачать
1 | 0
R.G. Resident & PiratVoice - Фильмы, Видео [ 3.28 GB ] «Серая Дама» уходит на глубину / Gray Lady Down [1978 BDRip-AVC] DVO - R.G.Resident schultz Скачать
1 | 0
Фильмы [HD 720p, 1080p] (Хороший звук DUB, MVO) [ 4.07 GB ] «Серая Дама» уходит на глубину / Gray Lady Down [1978 BDRip 720p by msltel] DVO msltel Скачать
1 | 0

28-11-2019 20:33  

Отключить всю рекламу на сайте

    Дорогой пользователь! Огромная просьба, поблагодарите релизера, оцените раздачу и оставьте свои комментарий, если Вы скачали «Серая Дама» уходит на глубину через торрент бесплатно! Внесите свою лепту в развитие PiratBit!
    Комментировать посты могут только пользователи прошедшие не сложную регистрацию
    Показать сообщения:    

    «Серая Дама» уходит на глубину через торрент
    Скачать бесплатно «Серая Дама» уходит на глубину
    «Серая Дама» уходит на глубину скачать торрент
    «Серая Дама» уходит на глубину смотреть онлайн
    Cкачать фильм «Серая Дама» уходит на глубину бесплатно
    «Серая Дама» уходит на глубину скачать торрент в хорошем качестве
    «Серая Дама» уходит на глубину смотреть онлайн бесплатно в хорошем качестве


    Вы не можете начинать темы
    Вы не можете отвечать на сообщения
    Вы не можете редактировать свои сообщения
    Вы не можете удалять свои сообщения
    Вы не можете голосовать в опросах
    Вы не можете прикреплять файлы к сообщениям
    Вы можете скачивать файлы