Доктор Стрэндж

Лицензия

Добыча

Дубляж

Уэнсдэй

1 сезон

Тор

Дубляж

В эфире

Дубляж

Там, где раки поют

MVO

Властелин колец

1 сезон

Deluxe

pack

Рекомендуем

30

Пиратка

ВАЖНО

ВАЖНО

Ghostwire

Пиратка

jed

RePack

nioh2

RePack

RDR2

RePack

NEED FOR SPEED™ PAYBACK

RePack

скачать торрент

Кинопоиск HD

Острые козырьки 6 сезон

6 сезон

FAR CRY 6

RePack

скачать торрент

Лицензия

скачать торрент

MVO

1

1 сезон

скачать торрент

1 сезон

скачать торрент

Лицензия

  

Харчевня в Шпессарте / Das Wirtshaus im Spessart (Курт Хоффманн) [1958, мюзикл, комедия, приключения, BDRip 1080p ] MVO

Харчевня в Шпессарте через торрент pb.wtf

Размер: 11.39 GB | Добавлен: 5 лет 4 мес. назад | Торрент скачан:10 раз
Смотреть онлайн | Скачать   

30-07-2017 08:32 Харчевня в Шпессарте Скачать торрент  

Название: Харчевня в Шпессарте
Оригинальное название: Das Wirtshaus im Spessart
Год выпуска: 1958
Страна: Германия (ФРГ)
Жанр: мюзикл, комедия, приключения
Продолжительность: 01:35:47
Перевод: профессиональный многоголосый

Режиссер: Курт Хоффманн
В ролях: Лизелотте Пульвер, Карлос Томпсон, Гюнтер Людерс, Рудольф Фогель, Вольфган Нойс, Вольфган Мюллер, Ина Питерс, Кай Фишер, Вероника Фитц, Херберт Хюбнер, Хуберт фон Майеринк, Хельмут Лохнер, Ханс Клэрин, Поль Эссер, Отто Сторр, Карл Хэнфт, Хейни Гёбель, Эрнст Браш, Вера Комплойер, Анетт Карманн, Георг Лен

Описание: Графиня Франциска с женихом едут в свой родовой замок Зандау. На ночь им приходится остановиться в харчевне в глухом местечке Шпессарт. Ночью в харчевню врываются бандиты, чтобы похитить графиню и получить за неё выкуп...



Качество: BDRip 1080p
Формат: MKV
Видео: MPEG-4 AVC, 15.3 Mбит/с, 1800x1080
Аудио 1: русский, MP3, 256 kbps, 2 ch [профессиональный многоголосый]
Аудио 2: немецкий, DTS, 1509 kbps, 2 ch, 48 kHz [оригинал]
Общее
Уникальный идентификатор : 198040735724142496169778571789620100484 (0x94FD4220DD1C75F4A5B20270ED763D84)
Полное имя : D:\Video\Харчевня в Шпессарте.1958.BDRip.1080p by msltel.mkv
Формат : Matroska
Версия формата : Version 4 / Version 2
Размер файла : 11,4 Гбайт
Продолжительность : 1 ч. 35 м.
Общий поток : 17,0 Мбит/сек
Название фильма : Rip by msltel
Дата кодирования : UTC 2017-07-30 04:11:08
Программа кодирования : mkvmerge v8.2.0 ('World of Adventure') 64bit
Библиотека кодирования : libebml v1.3.1 + libmatroska v1.4.2

Видео
Идентификатор : 1
Формат : AVC
Формат/Информация : Advanced Video Codec
Профиль формата : [email protected]
Параметр CABAC формата : Да
Параметр ReFrames формата : 4 кадра
Идентификатор кодека : V_MPEG4/ISO/AVC
Продолжительность : 1 ч. 35 м.
Битрейт : 15,3 Мбит/сек
Ширина : 1800 пикселей
Высота : 1080 пикселей
Соотношение сторон : 5:3
Режим частоты кадров : Постоянный
Частота кадров : 25,000 кадров/сек
Цветовое пространство : YUV
Субдискретизация насыщенности : 4:2:0
Битовая глубина : 8 бит
Тип развёртки : Прогрессивная
Бит/(Пиксели*Кадры) : 0.314
Размер потока : 10,2 Гбайт (90%)
Библиотека кодирования : x264 core 146 r2538 121396c
Настройки программы : cabac=1 / ref=4 / deblock=1:-3:-2 / analyse=0x3:0x113 / me=umh / subme=11 / psy=1 / psy_rd=1.00:0.15 / mixed_ref=1 / me_range=32 / chroma_me=1 / trellis=2 / 8x8dct=1 / cqm=0 / deadzone=21,11 / fast_pskip=0 / chroma_qp_offset=-3 / threads=6 / lookahead_threads=1 / sliced_threads=0 / nr=0 / decimate=1 / interlaced=0 / bluray_compat=0 / constrained_intra=0 / bframes=6 / b_pyramid=2 / b_adapt=2 / b_bias=0 / direct=1 / weightb=1 / open_gop=0 / weightp=2 / keyint=250 / keyint_min=25 / scenecut=40 / intra_refresh=0 / rc_lookahead=40 / rc=crf / mbtree=0 / crf=18.1 / qcomp=0.60 / qpmin=0 / qpmax=69 / qpstep=4 / vbv_maxrate=62500 / vbv_bufsize=78125 / crf_max=0.0 / nal_hrd=none / filler=0 / ip_ratio=1.40 / pb_ratio=1.30 / aq=1:1.00
Язык : German
Default : Да
Forced : Нет

Аудио #1
Идентификатор : 2
Формат : MPEG Audio
Версия формата : Version 1
Профиль формата : Layer 3
Режим : Joint stereo
Идентификатор кодека : A_MPEG/L3
Идентификатор кодека/Подсказка : MP3
Продолжительность : 1 ч. 35 м.
Вид битрейта : Постоянный
Битрейт : 256 Кбит/сек
Каналы : 2 канала
Частота : 48,0 КГц
Частота кадров : 41,667 кадра/сек (1152 spf)
Метод сжатия : С потерями
Размер потока : 175 Мбайт (2%)
Заголовок : MVO
Язык : Russian
Default : Да
Forced : Нет

Аудио #2
Идентификатор : 3
Формат : DTS
Формат/Информация : Digital Theater Systems
Режим : 16
Параметр Endianness формата : Big
Идентификатор кодека : A_DTS
Продолжительность : 1 ч. 35 м.
Вид битрейта : Постоянный
Битрейт : 1509 Кбит/сек
Каналы : 2 канала
Расположение каналов : Front: L R
Частота : 48,0 КГц
Частота кадров : 93,750 кадра/сек (512 spf)
Битовая глубина : 16 бит
Метод сжатия : С потерями
Размер потока : 1,01 Гбайт (9%)
Заголовок : original
Язык : German
Default : Нет
Forced : Нет



Скачать Харчевня в Шпессарте через торрент http://s019.radikal.ru/i637/1707/64/f922f7422c2c.jpg Скачать, смотреть онлайн Харчевня в Шпессарте бесплантно в хорошем качестве Описание: Графиня Франциска с женихом едут в свой родовой замок Зандау. На ночь им приходится остановиться в харчевне в глухом местечке ... 5 10 1
Info! Золотая раздача, скачанное не засчитывается.
Торрент: Зарегистрирован [2017-07-30 08:32] · скачан: 10 раз
Статус: √ проверено
Размер: 11.39 GB
Как cкачать? Как скачать Харчевня в Шпессарте через торрент | UTorrent

% Раздел Тема Автор DL S | L
Фильмы [HD 720p, 1080p] (Хороший звук DUB, MVO) [ 4.3 GB ] Харчевня в Шпессарте / Das Wirtshaus im Spessart | MVO | 720p msltel Скачать
1 | 0

28-11-2019 20:33  


Отключить вcю реклaмy на сайте, в т.ч. и в плеере онлайн просмотра!

    Дорогой пользователь! Огромная просьба, поблагодарите релизера, оцените раздачу и оставьте свои комментарий, если Вы скачали Харчевня в Шпессарте через торрент бесплатно!!
    Комментировать посты могут только пользователи прошедшие не сложную регистрацию
    Показать сообщения:    


    Харчевня в Шпессарте через торрент
    Скачать бесплатно Харчевня в Шпессарте
    Харчевня в Шпессарте скачать торрент
    Харчевня в Шпессарте смотреть онлайн
    Cкачать фильм Харчевня в Шпессарте бесплатно
    Харчевня в Шпессарте скачать торрент в хорошем качестве
    Харчевня в Шпессарте смотреть онлайн бесплатно в хорошем качестве
    Вы не можете начинать темы
    Вы не можете отвечать на сообщения
    Вы не можете редактировать свои сообщения
    Вы не можете удалять свои сообщения
    Вы не можете голосовать в опросах
    Вы не можете прикреплять файлы к сообщениям
    Вы можете скачивать файлы
    Харчевня в Шпессарте / Das Wirtshaus im Spessart [1958, мюзикл, комедия, приключения, BDRip 1080p ] MVO смотреть онлайн, скачать торрент picoco.icu