Ссылка на приватное зеркало нашего сайта всего за 1$. Внимание количество ограничено!!!

2 сезон

iTunes

1 сезон

1

iTunes

iTunes

iTunes

1 сезон

RePack

30

ИГРА 18+

pack

ВАЖНО

!!Акция!!

Alien_RageХит недели

RePack

MK11
pack

Забери бонус

RePack

jed

!!Акция!!

Alien_Rage

RePack

fifa19

RePack

Assassins Creed: Odyssey

RePack

NEED FOR SPEED™ PAYBACK

4 сезон

9 сезон

Бесстыжие 9 сезон

Все сериалы

все сериалы на PB.wtf

RePack

FAR CRY 5
  

Красная река / Red River (Ховард Хоукс, Артур Россон) [1948, мелодрама, приключения, вестерн, боевик, BDRip 720p by msltel] MVO, 2 x DVO, AVO pb.wtf

Красная река через торрент pb.wtf

Размер: 5.33 GB | Добавлен: 3 года 2 мес. назад | Торрент скачан:15 раз
Скачать  

30-07-2017 10:09 Красная река Скачать торрент  

Название: Красная река
Оригинальное название: Red River
Год выпуска: 1948
Страна: США
Жанр: мелодрама, приключения, вестерн, боевик
Продолжительность: 02:12:48
Перевод: профессиональный многоголосый, профессиональный двухголосый, авторский
Режиссер: Ховард Хоукс, Артур Россон
В ролях: Джон Уэйн, Монтгомери Клифт, Джоэнн Дрю, Уолтер Бреннан, Колин Грэй, Гарри Кэри ст., Джон Айрленд (I), Ноа Бири мл., Гарри Кэри мл., Вождь Йоулачи, Пол Фикс, Хэнк Уорден, Мики Кун, Рэй Хайк, Хол Таляферро, Чиф Скай Игл, Шелли Уинтерс, Ричард Фарнсуорт, Лэйн Чандлер, Дэвисон Кларк, Гарри Кординг, Пол Фьерро, Джордж Ллойд, Пирс Лайден, Джон Мертон, Иван Парри, Ли Фелпс, Уильям Селф, Гленн Стрэйндж, Том Тайлер, Дэн Уайт

О фильме: На Запад идёт большой караван. Измотанные лошади тащат тяжёлые медленные повозки, и скорость каравана настолько мала, что это уже даже представляет опасность от нападения и разграбления. И тогда самый отчаянный малый по имени Том Дансон решает наплевать на всё, в том числе и на свою возлюбленную Фен, и податься на Юг. Туда, где настоящего ковбоя манит сказочно богатая и многообещающая Красная река. Как только они перевалили через небольшой холм, то услышали сзади звуки выстрелов и увидели мощные клубы чёрного дыма...



Качество: BDRip 720p
Формат: MKV
Видео: MPEG-4 AVC, 4778 Кбит/с, 960x720, 23.976 кадр/с
Аудио 1: русский, AC3, 192 kbps, 2 ch, 48 kHz [профессиональный многоголосый, DVD Magic]
Аудио 2: русский, AC3, 192 kbps, 2 ch, 48 kHz [профессиональный двухголосый, SomeWax]
Аудио 3: русский, AC3, 192 kbps, 2 ch, 48 kHz [профессиональный двухголосый, HTB+]
Аудио 4: русский, AC3, 192 kbps, 2 ch, 48 kHz [авторский, Григорий Либергал]
Аудио 5: английский, AC3, 192 kbps, 2 ch, 48 kHz [оригинал]
Субтитры 1: русские
Субтитры 2: английские
Имеются неименованные главы/чаптеры.
Общее
Уникальный идентификатор : 246372633049903200662701965757391349070 (0xB959A4A545593D8F9A86EB477664A54E)
Полное имя : D:\Video\Красная река.1948.BDRip.720p by msltel.mkv
Формат : Matroska
Версия формата : Version 4 / Version 2
Размер файла : 5,33 Гбайт
Продолжительность : 2 ч. 12 м.
Общий поток : 5742 Кбит/сек
Название фильма : Rip by msltel
Дата кодирования : UTC 2017-07-28 02:15:03
Программа кодирования : mkvmerge v8.2.0 ('World of Adventure') 64bit
Библиотека кодирования : libebml v1.3.1 + libmatroska v1.4.2

Видео
Идентификатор : 1
Формат : AVC
Формат/Информация : Advanced Video Codec
Профиль формата : High@L4.1
Параметр CABAC формата : Да
Параметр ReFrames формата : 9 кадров
Идентификатор кодека : V_MPEG4/ISO/AVC
Продолжительность : 2 ч. 12 м.
Битрейт : 4778 Кбит/сек
Ширина : 960 пикселей
Высота : 720 пикселей
Соотношение сторон : 4:3
Режим частоты кадров : Постоянный
Частота кадров : 23,976 (24000/1001) кадра/сек
Цветовое пространство : YUV
Субдискретизация насыщенности : 4:2:0
Битовая глубина : 8 бит
Тип развёртки : Прогрессивная
Бит/(Пиксели*Кадры) : 0.288
Размер потока : 4,43 Гбайт (83%)
Библиотека кодирования : x264 core 146 r2538 121396c
Настройки программы : cabac=1 / ref=9 / deblock=1:-3:-2 / analyse=0x3:0x113 / me=umh / subme=11 / psy=1 / psy_rd=1.00:0.15 / mixed_ref=1 / me_range=32 / chroma_me=1 / trellis=2 / 8x8dct=1 / cqm=0 / deadzone=21,11 / fast_pskip=0 / chroma_qp_offset=-3 / threads=6 / lookahead_threads=1 / sliced_threads=0 / nr=0 / decimate=1 / interlaced=0 / bluray_compat=0 / constrained_intra=0 / bframes=8 / b_pyramid=2 / b_adapt=2 / b_bias=0 / direct=1 / weightb=1 / open_gop=0 / weightp=2 / keyint=230 / keyint_min=23 / scenecut=40 / intra_refresh=0 / rc_lookahead=40 / rc=crf / mbtree=0 / crf=19.6 / qcomp=0.60 / qpmin=0 / qpmax=69 / qpstep=4 / vbv_maxrate=62500 / vbv_bufsize=78125 / crf_max=0.0 / nal_hrd=none / filler=0 / ip_ratio=1.40 / pb_ratio=1.30 / aq=1:1.00
Язык : English
Default : Да
Forced : Нет

Аудио #1
Идентификатор : 2
Формат : AC-3
Формат/Информация : Audio Coding 3
Параметр Endianness формата : Big
Идентификатор кодека : A_AC3
Продолжительность : 2 ч. 12 м.
Вид битрейта : Постоянный
Битрейт : 192 Кбит/сек
Каналы : 2 канала
Расположение каналов : Front: L R
Частота : 48,0 КГц
Частота кадров : 31,250 кадров/сек (1536 spf)
Битовая глубина : 16 бит
Метод сжатия : С потерями
Размер потока : 182 Мбайт (3%)
Заголовок : MVO (DVD Magic)
Язык : Russian
ServiceKind/String : Complete Main
Default : Да
Forced : Нет

Аудио #2
Идентификатор : 3
Формат : AC-3
Формат/Информация : Audio Coding 3
Режим : Dolby Digital
Параметр Endianness формата : Big
Идентификатор кодека : A_AC3
Продолжительность : 2 ч. 12 м.
Вид битрейта : Постоянный
Битрейт : 192 Кбит/сек
Каналы : 2 канала
Расположение каналов : Front: L R
Частота : 48,0 КГц
Частота кадров : 31,250 кадров/сек (1536 spf)
Битовая глубина : 16 бит
Метод сжатия : С потерями
Размер потока : 182 Мбайт (3%)
Заголовок : DVO (SomeWax)
Язык : Russian
ServiceKind/String : Complete Main
Default : Нет
Forced : Нет

Аудио #3
Идентификатор : 4
Формат : AC-3
Формат/Информация : Audio Coding 3
Режим : Dolby Digital
Параметр Endianness формата : Big
Идентификатор кодека : A_AC3
Продолжительность : 2 ч. 12 м.
Вид битрейта : Постоянный
Битрейт : 192 Кбит/сек
Каналы : 2 канала
Расположение каналов : Front: L R
Частота : 48,0 КГц
Частота кадров : 31,250 кадров/сек (1536 spf)
Битовая глубина : 16 бит
Метод сжатия : С потерями
Размер потока : 182 Мбайт (3%)
Заголовок : DVO (HTB+)
Язык : Russian
ServiceKind/String : Complete Main
Default : Нет
Forced : Нет

Аудио #4
Идентификатор : 5
Формат : AC-3
Формат/Информация : Audio Coding 3
Параметр Endianness формата : Big
Идентификатор кодека : A_AC3
Продолжительность : 2 ч. 12 м.
Вид битрейта : Постоянный
Битрейт : 192 Кбит/сек
Каналы : 2 канала
Расположение каналов : Front: L R
Частота : 48,0 КГц
Частота кадров : 31,250 кадров/сек (1536 spf)
Битовая глубина : 16 бит
Метод сжатия : С потерями
Размер потока : 182 Мбайт (3%)
Заголовок : AVO (Григорий Либергал)
Язык : Russian
ServiceKind/String : Complete Main
Default : Нет
Forced : Нет

Аудио #5
Идентификатор : 6
Формат : AC-3
Формат/Информация : Audio Coding 3
Параметр Endianness формата : Big
Идентификатор кодека : A_AC3
Продолжительность : 2 ч. 12 м.
Вид битрейта : Постоянный
Битрейт : 192 Кбит/сек
Каналы : 2 канала
Расположение каналов : Front: L R
Частота : 48,0 КГц
Частота кадров : 31,250 кадров/сек (1536 spf)
Битовая глубина : 16 бит
Метод сжатия : С потерями
Размер потока : 182 Мбайт (3%)
Заголовок : original
Язык : English
ServiceKind/String : Complete Main
Default : Нет
Forced : Нет

Текст #1
Идентификатор : 7
Формат : UTF-8
Идентификатор кодека : S_TEXT/UTF8
Идентификатор кодека/Информация : UTF-8 Plain Text
Продолжительность : 2 ч. 11 м.
Битрейт : 83 бит/сек
ElementCount : 1510
Размер потока : 79,8 Кбайт (0%)
Заголовок : русские
Язык : Russian
Default : Нет
Forced : Нет

Текст #2
Идентификатор : 8
Формат : UTF-8
Идентификатор кодека : S_TEXT/UTF8
Идентификатор кодека/Информация : UTF-8 Plain Text
Продолжительность : 2 ч. 10 м.
Битрейт : 63 бит/сек
ElementCount : 1571
Размер потока : 60,9 Кбайт (0%)
Заголовок : английские
Язык : English
Default : Нет
Forced : Нет

Меню
00:00:00.000 : :Chapter 01
00:01:34.344 : :Chapter 02
00:10:46.729 : :Chapter 03
00:19:02.516 : :Chapter 04
00:29:19.174 : :Chapter 05
00:36:26.225 : :Chapter 06
00:45:14.086 : :Chapter 07
00:53:50.810 : :Chapter 08
00:59:29.524 : :Chapter 09
01:08:21.013 : :Chapter 10
01:17:13.253 : :Chapter 11
01:26:02.240 : :Chapter 12
01:37:39.228 : :Chapter 13
01:45:54.639 : :Chapter 14
01:53:26.674 : :Chapter 15
02:05:08.959 : :Chapter 16
pb.wtf



Скачать Красная река через торрент http://s013.radikal.ru/i324/1707/aa/c672e6b4e182.jpg Скачать фильм Красная река через торрент бесплантно в хорошем качестве О фильме: На Запад идёт большой караван. Измотанные лошади тащат тяжёлые медленные повозки, и скорость каравана настолько мала, что это уже ... 10 10 1
Info! Золотая раздача, скачанное не засчитывается.
Торрент: Зарегистрирован [2017-07-30 10:09] · скачан: 15 раз
Статус: √ проверено
Размер: 5.33 GB
Как cкачать? Как скачать Красная река через торрент | qTorrent

% Раздел Тема Автор DL S | L
Фильмы [HD 720p, 1080p] (Хороший звук DUB, MVO) [ 13.71 GB ] Красная река / Red River [1948 BDRip 1080p by msltel] MVO 2 x DVO AVO msltel Скачать
1 | 0

28-11-2019 20:33  

Отключить всю рекламу на сайте

20-11-2017 17:35 Красная река Скачать торрент  

эх... умели все таки когда-то снимать pb.wtf



    Дорогой пользователь! Огромная просьба, поблагодарите релизера, оцените раздачу и оставьте свои комментарий, если Вы скачали Красная река через торрент бесплатно! Внесите свою лепту в развитие PiratBit!
    Комментировать посты могут только пользователи прошедшие не сложную регистрацию
    Показать сообщения:    

    Красная река через торрент
    Скачать бесплатно Красная река
    Красная река скачать торрент
    Красная река смотреть онлайн
    Cкачать фильм Красная река бесплатно
    Красная река скачать торрент в хорошем качестве
    Красная река смотреть онлайн бесплатно в хорошем качестве


    Вы не можете начинать темы
    Вы не можете отвечать на сообщения
    Вы не можете редактировать свои сообщения
    Вы не можете удалять свои сообщения
    Вы не можете голосовать в опросах
    Вы не можете прикреплять файлы к сообщениям
    Вы можете скачивать файлы