новый адрес
Ссылка на приватное зеркало всего за 1$. Внимание количество ограничено!!!

iTunes

1+1

iTunes

мы

WEB-DL

1

iTunes

Чернобыль

iTunes

Ральф против интернета

Лицензия

ПШазам

Лицензия

Оно 2

Лицензия

30
pack

Вам бонус

ВАЖНО

!!Акция!!

Alien_RageХит недели

RePack

Resident Evil 21

ИГРА 18+

pack

RePack

jed

!!Акция!!

Alien_Rage

RePack

fifa19

RePack

Assassins Creed: Odyssey

RePack

NEED FOR SPEED™ PAYBACK

3 сезон

9 сезон

Бесстыжие 9 сезон

Все сериалы

все сериалы на PB.wtf

RePack

FAR CRY 5
Ребята, катастрофически не хватает 1900р. для оплаты серверов за Октябрь (всвязи с блокировками трафик упал в 3 раза), 1-2р., выручайте.
  

О чём шумит река (Григорий Мелик-Авакян) [1958, драма, SATRip от AVP Studio] pb.wtf

О чём шумит река через торрент pb.wtf

Размер: 1.09 GB | Добавлен: 2 года 4 мес. назад | Торрент скачан:13 раз
Скачать  

30-07-2017 14:34 О чём шумит река Скачать торрент  

О чём шумит река
Страна: СССР
Производство: Арменфильм

Жанр: драма
Год выпуска: 1958
Продолжительность: 01:27:35

Перевод: Не требуется
Cубтитры: нет
Оригинальная аудиодорожка: русский

Режиссер: Григорий Мелик-Авакян

В ролях:
Грачья Нерсесян, Авет Аветисян, Фрунзе Довлатян, Николай Казаков, Левон Тухикян, Лилия Оганесян, Давид Малян, Лев Лобов, Олег Герасимов, Сайфулло Джурабаев, Амалия Аразян, Верджалуйс Мириджанян, Азер Курбанов...
Об актёрах подробней

Описание:
Утром ефрейтор Манукян заметил за рекой человека с измерительной рейкой в руках, очевидно мираба. Он видит его здесь впервые, но лицо хорошо ему знакомо. Портрет мираба он видел в доме Гамбарянов. Это Атанес Гамбарян (Грачья Нерсесян), колхозный мираб, которого считали погибшим во время войны.
Жизнь колхозного села идёт своим чередом. Колхозники заботятся об урожае, проводят ночные полвы, чтобы уберечь посевы от засухи. Часто колхозу помогают пограничники. От рядового Самохина местные жители узнают о Атанесе Гамбаряне.
Засуха грозит голодом крестьянам на турецкой стороне. Армянские колхозники решают помочь соседям, отдать им для полива часть воды. Крестьяне приступают к сооружения шпоры, но её разбивает вода. Не теряется лишь Атанес Гамбарян, он руководит восстановлением шпоры. Не раздумывая, он бросается на помощь девочке, упавшей в реку. Течение относит их на середину. Атанес теряет силы. Пограничники спасают его и девочку. Через несколько часов маленькую Фирузу по требованию турецкого комиссара возвращают на тот берег.
Атанес Гамбарян остаётся в Армении. Во время войны он раненым попал в плен, был в концлагере, работал на урановых рудниках, бежал, дважды пытался перейти границу. Наконец, после долгого пути он вернулся на Родину.

Источник: DVB
Качество видео: SATRip
Формат видео: AVI

Видео: 704x528 (4:3), 25 fps, XviD ~ 1580 kbps avg, 0.170 bit/pixel
Аудио: 48 kHz, Dolby Digital AC3 2.0, 192 kbps

Раздача от:
Общее
Полное имя : O.chem.shumit.reka.1958.SATRip_[New-team]_by_AVP_Studio.avi
Формат : AVI
Формат/Информация : Audio Video Interleave
Размер файла : 1,09 Гбайт
Продолжительность : 1 ч. 27 м.
Общий поток : 1782 Кбит/сек
Программа кодирования : VirtualDubMod 1.5.10.3 | www.virtualdub-fr.org || (build 2550/release)
Библиотека кодирования : VirtualDubMod build 2550/release

Видео
Идентификатор : 0
Формат : MPEG-4 Visual
Профиль формата : Advanced Simple@L5
Параметр BVOP формата : 1
Параметр QPel формата : Нет
Параметр GMC формата : Без точки перехода
Параметр матрицы формата : Выборочная
Идентификатор кодека : XVID
Идентификатор кодека/Подсказка : XviD
Продолжительность : 1 ч. 27 м.
Битрейт : 1580 Кбит/сек
Ширина : 704 пикселя
Высота : 528 пикселей
Соотношение сторон : 4:3
Частота кадров : 25,000 кадров/сек
Цветовое пространство : YUV
Субдискретизация насыщенности : 4:2:0
Битовая глубина : 8 бит
Тип развёртки : Прогрессивная
Метод сжатия : С потерями
Бит/(Пиксели*Кадры) : 0.170
Размер потока : 990 Мбайт (89%)
Библиотека кодирования : XviD 73

Аудио
Идентификатор : 1
Формат : AC-3
Формат/Информация : Audio Coding 3
Параметр Endianness формата : Big
Идентификатор кодека : 2000
Продолжительность : 1 ч. 27 м.
Вид битрейта : Постоянный
Битрейт : 192 Кбит/сек
Каналы : 2 канала
Расположение каналов : Front: L R
Частота : 48,0 КГц
Частота кадров : 31,250 кадров/сек (1536 spf)
Битовая глубина : 16 бит
Метод сжатия : С потерями
Размер потока : 120 Мбайт (11%)
Выравнивание : Разделение по промежуткам
Продолжительность промежутка : 40 мс. (1,00 видеокадр)
Время предзагрузки промежутка : 500 мс
pb.wtf



Скачать О чём шумит река через торрент http://s015.radikal.ru/i331/1707/da/58e2b00d13d3.png Скачать фильм О чём шумит река через торрент бесплантно в хорошем качестве Описание:Утром ефрейтор Манукян заметил за рекой человека с измерительной рейкой в руках, очевидно мираба. Он видит его здесь впервые, но ... 10 10 1
Info! Золотая раздача, скачанное не засчитывается.
Торрент: Зарегистрирован [2017-07-30 14:34] · скачан: 13 раз
Статус: √ проверено
Размер: 1.09 GB
Как cкачать? Как скачать О чём шумит река через торрент | qTorrent

% Раздел Тема Автор DL S | L
Кино СССР [ 1.09 GB ] О чём шумит река [1958 SATRip-AVC от AVP Studio] AVP Studio Скачать
1 | 0
Кино СССР [ 748 MB ] О чём шумит река [1958 SATRip от AVP Studio] AVP Studio Скачать
1 | 0

28-11-2019 20:33  

Отключить всю рекламу на сайте

    Дорогой пользователь! Огромная просьба, поблагодарите релизера, оцените раздачу и оставьте свои комментарий, если Вы скачали О чём шумит река через торрент бесплатно! Внесите свою лепту в развитие PiratBit!
    Комментировать посты могут только пользователи прошедшие не сложную регистрацию
    Показать сообщения:    

    О чём шумит река через торрент
    Скачать бесплатно О чём шумит река
    О чём шумит река скачать торрент
    О чём шумит река смотреть онлайн
    Cкачать фильм О чём шумит река бесплатно
    О чём шумит река скачать торрент в хорошем качестве
    О чём шумит река смотреть онлайн бесплатно в хорошем качестве


    Вы не можете начинать темы
    Вы не можете отвечать на сообщения
    Вы не можете редактировать свои сообщения
    Вы не можете удалять свои сообщения
    Вы не можете голосовать в опросах
    Вы не можете прикреплять файлы к сообщениям
    Вы можете скачивать файлы