Ссылка на приватное зеркало нашего сайта всего за 1$. Внимание количество ограничено!!!

2 сезон

iTunes

1 сезон

1

iTunes

iTunes

iTunes

1 сезон

RePack

30

ИГРА 18+

pack

ВАЖНО

!!Акция!!

Alien_RageХит недели

RePack

MK11
pack

Забери бонус

RePack

jed

!!Акция!!

Alien_Rage

RePack

fifa19

RePack

Assassins Creed: Odyssey

RePack

NEED FOR SPEED™ PAYBACK

4 сезон

9 сезон

Бесстыжие 9 сезон

Все сериалы

все сериалы на PB.wtf

RePack

FAR CRY 5
  

Привидения в замке Шпессарт / Das Spukschloss im Spessart (Курт Хоффманн) [1960, комедия, мюзикл, фэнтези, BDRip 720p by msltel] DUB pb.wtf

Привидения в замке Шпессарт через торрент pb.wtf

Размер: 4.02 GB | Добавлен: 3 года 2 мес. назад | Торрент скачан:53 раза
Скачать  

31-07-2017 09:23 Привидения в замке Шпессарт Скачать торрент  

Название: Привидения в замке Шпессарт
Оригинальное название: Das Spukschloss im Spessart
Год выпуска: 1960
Страна: Германия (ФРГ)
Жанр: комедия, мюзикл, фэнтези
Продолжительность: 01:37:23
Перевод: дублированный

Режиссер: Курт Хоффманн
В ролях: Лизелотта Пульвер, Хейнц Бауман, Ханне Видер, Эльза Вагнер, Эрнст Вальдов, Губерт фон Мейеринк, Ганс Кларин

О фильме: При прокладке шоссе строители находят несколько скелетов. Это Хуго, Тони, Макс и девушка. Теперь они — привидения. В качестве «места жительства» костлявые друзья выбирают замок Шпессарт, где обитает молодая графиня Шарлотта Зандау, её тетя Ивонна и дядя Теодор... Второй фильм трилогии пародийных комедий о привидениях. Снят по мотивам сказок Вильгельма Гауфа.



Качество: BDRip 720p
Формат: MKV
Видео: MPEG-4 AVC, 5460 Kбит/с, 1196x720
Аудио 1: русский, MP3, 256 kbps, 2 ch [дублированный]
Аудио 2: немецкий, AC3, 192 kbps, 2 ch, 48 kHz [оригинал]
Имеются неименованные главы/чаптеры.
Общее
Уникальный идентификатор : 192448547275841855344390687069175819853 (0x90C83DF3665B2BDDAE3CD42F20502E4D)
Полное имя : D:\Video\Привидения в замке Шпессарт.1960.BDRip.720p by msltel.mkv
Формат : Matroska
Версия формата : Version 4 / Version 2
Размер файла : 4,02 Гбайт
Продолжительность : 1 ч. 37 м.
Общий поток : 5909 Кбит/сек
Название фильма : Rip by msltel
Дата кодирования : UTC 2017-07-30 14:30:13
Программа кодирования : mkvmerge v8.2.0 ('World of Adventure') 64bit
Библиотека кодирования : libebml v1.3.1 + libmatroska v1.4.2

Видео
Идентификатор : 1
Формат : AVC
Формат/Информация : Advanced Video Codec
Профиль формата : High@L4.1
Параметр CABAC формата : Да
Параметр ReFrames формата : 9 кадров
Идентификатор кодека : V_MPEG4/ISO/AVC
Продолжительность : 1 ч. 37 м.
Битрейт : 5460 Кбит/сек
Ширина : 1196 пикселей
Высота : 720 пикселей
Соотношение сторон : 5:3
Режим частоты кадров : Постоянный
Частота кадров : 25,000 кадров/сек
Цветовое пространство : YUV
Субдискретизация насыщенности : 4:2:0
Битовая глубина : 8 бит
Тип развёртки : Прогрессивная
Бит/(Пиксели*Кадры) : 0.254
Размер потока : 3,71 Гбайт (92%)
Библиотека кодирования : x264 core 146 r2538 121396c
Настройки программы : cabac=1 / ref=9 / deblock=1:-3:-2 / analyse=0x3:0x113 / me=umh / subme=11 / psy=1 / psy_rd=1.00:0.15 / mixed_ref=1 / me_range=32 / chroma_me=1 / trellis=2 / 8x8dct=1 / cqm=0 / deadzone=21,11 / fast_pskip=0 / chroma_qp_offset=-3 / threads=6 / lookahead_threads=1 / sliced_threads=0 / nr=0 / decimate=1 / interlaced=0 / bluray_compat=0 / constrained_intra=0 / bframes=7 / b_pyramid=2 / b_adapt=2 / b_bias=0 / direct=1 / weightb=1 / open_gop=0 / weightp=2 / keyint=250 / keyint_min=25 / scenecut=40 / intra_refresh=0 / rc_lookahead=40 / rc=crf / mbtree=0 / crf=17.4 / qcomp=0.60 / qpmin=0 / qpmax=69 / qpstep=4 / vbv_maxrate=62500 / vbv_bufsize=78125 / crf_max=0.0 / nal_hrd=none / filler=0 / ip_ratio=1.40 / pb_ratio=1.30 / aq=1:1.00
Язык : German
Default : Да
Forced : Нет

Аудио #1
Идентификатор : 2
Формат : MPEG Audio
Версия формата : Version 1
Профиль формата : Layer 3
Режим : Joint stereo
Идентификатор кодека : A_MPEG/L3
Идентификатор кодека/Подсказка : MP3
Продолжительность : 1 ч. 37 м.
Вид битрейта : Постоянный
Битрейт : 256 Кбит/сек
Каналы : 2 канала
Частота : 48,0 КГц
Частота кадров : 41,667 кадра/сек (1152 spf)
Метод сжатия : С потерями
Размер потока : 178 Мбайт (4%)
Заголовок : DUB
Язык : Russian
Default : Да
Forced : Нет

Аудио #2
Идентификатор : 3
Формат : AC-3
Формат/Информация : Audio Coding 3
Параметр Endianness формата : Big
Идентификатор кодека : A_AC3
Продолжительность : 1 ч. 37 м.
Вид битрейта : Постоянный
Битрейт : 192 Кбит/сек
Каналы : 2 канала
Расположение каналов : Front: L R
Частота : 48,0 КГц
Частота кадров : 31,250 кадров/сек (1536 spf)
Битовая глубина : 16 бит
Метод сжатия : С потерями
Размер потока : 134 Мбайт (3%)
Заголовок : original
Язык : German
ServiceKind/String : Complete Main
Default : Нет
Forced : Нет

Меню
00:00:00.000 : en:Chapter 1
00:07:18.320 : en:Chapter 2
00:14:39.440 : en:Chapter 3
00:19:52.320 : en:Chapter 4
00:28:39.600 : en:Chapter 5
00:36:44.800 : en:Chapter 6
00:45:20.800 : en:Chapter 7
00:52:30.800 : en:Chapter 8
01:00:03.320 : en:Chapter 9
01:10:42.040 : en:Chapter 10
01:16:44.120 : en:Chapter 11
01:25:30.600 : en:Chapter 12
pb.wtf



Скачать Привидения в замке Шпессарт через торрент http://s010.radikal.ru/i312/1707/c4/86d82069dc36.jpg Скачать фильм Привидения в замке Шпессарт через торрент бесплантно в хорошем качестве О фильме: При прокладке шоссе строители находят несколько скелетов. Это Хуго, Тони, Макс и девушка. Теперь они — привидения. В качестве ... 10 10 3
Info! Золотая раздача, скачанное не засчитывается.
Торрент: Зарегистрирован [2017-07-31 09:23] · скачан: 53 раз
Статус: √ проверено
Размер: 4.02 GB
Как cкачать? Как скачать Привидения в замке Шпессарт через торрент | qTorrent

% Раздел Тема Автор DL S | L
Фильмы [HD 720p, 1080p] (Хороший звук DUB, MVO) [ 11.64 GB ] Привидения в замке Шпессарт / Das Spukschloss im Spessart [1960 мюзикл BDRip 1080p by msltel] DUB msltel Скачать
1 | 0

28-11-2019 20:33  

Отключить всю рекламу на сайте

    Дорогой пользователь! Огромная просьба, поблагодарите релизера, оцените раздачу и оставьте свои комментарий, если Вы скачали Привидения в замке Шпессарт через торрент бесплатно! Внесите свою лепту в развитие PiratBit!
    Комментировать посты могут только пользователи прошедшие не сложную регистрацию
    Показать сообщения:    

    Привидения в замке Шпессарт через торрент
    Скачать бесплатно Привидения в замке Шпессарт
    Привидения в замке Шпессарт скачать торрент
    Привидения в замке Шпессарт смотреть онлайн
    Cкачать фильм Привидения в замке Шпессарт бесплатно
    Привидения в замке Шпессарт скачать торрент в хорошем качестве
    Привидения в замке Шпессарт смотреть онлайн бесплатно в хорошем качестве


    Вы не можете начинать темы
    Вы не можете отвечать на сообщения
    Вы не можете редактировать свои сообщения
    Вы не можете удалять свои сообщения
    Вы не можете голосовать в опросах
    Вы не можете прикреплять файлы к сообщениям
    Вы можете скачивать файлы