Ссылка на приватное зеркало всего за 1$. Внимание количество ограничено!!!

OK

1+1

iTunes

мы

OK

1

WEB-DLRip

Джокер

Пифагор

Ведьмак / The Witcher сериал

Лицензия

ПШазам

ОК

Оно 2

iTunes

30
pack

Вам бонус

ВАЖНО

!!Акция!!

Alien_RageХит недели

RePack

Resident Evil 21

ИГРА 18+

pack

RePack

jed

!!Акция!!

Alien_Rage

RePack

fifa19

RePack

Assassins Creed: Odyssey

RePack

NEED FOR SPEED™ PAYBACK

4 сезон

9 сезон

Бесстыжие 9 сезон

Все сериалы

все сериалы на PB.wtf

RePack

FAR CRY 5
  

Моя девушка – монстр / Colossal (Начо Вигалондо ) [2016, фантастика, триллер, комедия, BDRip 720p от potroks] Dub [iTunes] pb.wtf

Моя девушка – монстр через торрент pb.wtf

Размер: 4.32 GB | Добавлен: 2 года 5 мес. назад | Торрент скачан:313 раз
Скачать  

01-08-2017 04:45 Моя девушка – монстр Скачать торрент  

Моя девушка – монстр / Colossal

Год выпуска: 2016
Страна: Канада, Испания / Brightlight Pictures Inc., Route One Films...
Жанр: фантастика, триллер, комедия, боевик
Продолжительность: 01:49:23
Перевод: Дубляж [iTunes]
Субтитры: английские (Full), английские (SDH), английские (SDH-Colored)
Навигация по главам: есть

Режиссер: Начо Вигалондо
В ролях:

Энн Хэтэуэй (Gloria), Джейсон Судейкис (Oscar), Остин Стоуэлл (Joel), Тим Блейк Нельсон (Garth), Дэн Стивенс (Tim), Ханна Черами (Young Gloria), Нэйтан Эллисон (Young Oscar), Сара Сурх (Mother), Haeun Hannah Cho (Little Girl), Карлос Джо Коста (Old Man), Мелисса Монтгомери (Waitress), Кристин Ли (Seoul Waitress)

Описание: Гигантский монстр нападает на Сеул, разрушая все на своем пути. В Нью-Йорке потерявшая работу и бойфренда Глория понимает, что каким-то образом связана с этими фантастическими событиями.



Качество: BDRip 720p
Формат: MKV
Видео: AVC, 1280x534 (2.40:1), 4826 kbps, 23,976 fps, 0,294 bpp
Аудио №1: AC3 / 5.1 / 48 kHz / 384 kbps / 16 bit | RUS
Аудио №2: AC3 / 5.1 / 48 kHz / 448 kbps / 16 bit | ENG
General
Unique ID : 198291160524560205595293585800100897980 (0x952D7D06383C738B845ECB5D31A8E4BC)
Complete name : D:\Moya.Devushka.Monstr.2016.DUAL.BDRip.720p.-HELLYWOOD.mkv
Format : Matroska
Format version : Version 4 / Version 2
File size : 4.32 GiB
Duration : 1 h 49 min
Overall bit rate : 5 656 kb/s
Movie name : Colossal (2016)
Encoded date : UTC 2017-08-01 04:27:22
Writing application : mkvmerge v5.9.0 ('On The Loose') built on Dec 15 2012 16:39:58
Writing library : libebml v1.3.0 + libmatroska v1.4.0

Video
ID : 1
Format : AVC
Format/Info : Advanced Video Codec
Format profile : High@L4.1
Format settings, CABAC : Yes
Format settings, ReFrames : 9 frames
Codec ID : V_MPEG4/ISO/AVC
Duration : 1 h 49 min
Bit rate : 4 826 kb/s
Width : 1 280 pixels
Height : 534 pixels
Display aspect ratio : 2.40:1
Frame rate mode : Constant
Frame rate : 23.976 (24000/1001) FPS
Color space : YUV
Chroma subsampling : 4:2:0
Bit depth : 8 bits
Scan type : Progressive
Bits/(Pixel*Frame) : 0.294
Stream size : 3.60 GiB (83%)
Title : potroks
Writing library : x264 core 146 r2538 121396c
Encoding settings : cabac=1 / ref=9 / deblock=1:-3:-3 / analyse=0x3:0x113 / me=umh / subme=11 / psy=1 / psy_rd=1.00:0.05 / mixed_ref=1 / me_range=48 / chroma_me=1 / trellis=2 / 8x8dct=1 / cqm=0 / deadzone=21,11 / fast_pskip=0 / chroma_qp_offset=-3 / threads=9 / lookahead_threads=2 / sliced_threads=0 / nr=0 / decimate=0 / interlaced=0 / bluray_compat=0 / constrained_intra=0 / bframes=11 / b_pyramid=2 / b_adapt=2 / b_bias=0 / direct=3 / weightb=1 / open_gop=0 / weightp=2 / keyint=240 / keyint_min=23 / scenecut=40 / intra_refresh=0 / rc_lookahead=60 / rc=2pass / mbtree=0 / bitrate=4826 / ratetol=1.0 / qcomp=0.70 / qpmin=0 / qpmax=69 / qpstep=4 / cplxblur=20.0 / qblur=0.5 / vbv_maxrate=14000 / vbv_bufsize=14000 / nal_hrd=none / filler=0 / ip_ratio=1.40 / pb_ratio=1.30 / aq=2:0.80
Language : English
Default : Yes
Forced : No

Audio #1
ID : 2
Format : AC-3
Format/Info : Audio Coding 3
Mode extension : CM (complete main)
Format settings, Endianness : Big
Codec ID : A_AC3
Duration : 1 h 49 min
Bit rate mode : Constant
Bit rate : 384 kb/s
Channel(s) : 6 channels
Channel positions : Front: L C R, Side: L R, LFE
Sampling rate : 48.0 kHz
Frame rate : 31.250 FPS (1536 spf)
Compression mode : Lossy
Stream size : 300 MiB (7%)
Title : Dub | DD 5.1 @ 384 kbps - iTunes
Language : Russian
Default : Yes
Forced : No

Audio #2
ID : 3
Format : AC-3
Format/Info : Audio Coding 3
Mode extension : CM (complete main)
Format settings, Endianness : Big
Codec ID : A_AC3
Duration : 1 h 49 min
Bit rate mode : Constant
Bit rate : 448 kb/s
Channel(s) : 6 channels
Channel positions : Front: L C R, Side: L R, LFE
Sampling rate : 48.0 kHz
Frame rate : 31.250 FPS (1536 spf)
Compression mode : Lossy
Stream size : 351 MiB (8%)
Title : Original | DD 5.1 @ 448 kbps
Language : English
Default : No
Forced : No

Text #1
ID : 4
Format : UTF-8
Codec ID : S_TEXT/UTF8
Codec ID/Info : UTF-8 Plain Text
Title : Full
Language : English
Default : No
Forced : No

Text #2
ID : 5
Format : UTF-8
Codec ID : S_TEXT/UTF8
Codec ID/Info : UTF-8 Plain Text
Title : SDH
Language : English
Default : No
Forced : No

Text #3
ID : 6
Format : UTF-8
Codec ID : S_TEXT/UTF8
Codec ID/Info : UTF-8 Plain Text
Title : SDH-Colored
Language : English
Default : No
Forced : No

Menu
00:00:00.000 : en:(01)00:00:00:000
00:06:17.209 : en:(02)00:06:17:209
00:11:20.053 : en:(03)00:11:20:053
00:16:47.464 : en:(04)00:16:47:464
00:21:57.147 : en:(05)00:21:57:147
00:28:13.066 : en:(06)00:28:13:066
00:32:32.616 : en:(07)00:32:32:616
00:37:34.376 : en:(08)00:37:34:376
00:43:04.831 : en:(09)00:43:04:831
00:46:26.114 : en:(10)00:46:26:114
00:52:03.829 : en:(11)00:52:03:829
00:57:49.882 : en:(12)00:57:49:882
01:03:57.123 : en:(13)01:03:57:123
01:10:59.546 : en:(14)01:10:59:546
01:14:39.432 : en:(15)01:14:39:432
01:21:51.948 : en:(16)01:21:51:948
01:26:09.037 : en:(17)01:26:09:037
01:31:45.750 : en:(18)01:31:45:750
01:36:10.345 : en:(19)01:36:10:345
01:44:23.506 : en:(20)01:44:23:506
01:49:23.430 : en:(21)01:49:23:430
pb.wtf



Скачать Моя девушка – монстр через торрент http://i2.imageban.ru/out/2017/08/01/d1dcab4b500f290d3a58e28c80fd1068.png Скачать фильм Моя девушка – монстр через торрент бесплантно в хорошем качестве Описание: Гигантский монстр нападает на Сеул, разрушая все на своем пути. В Нью-Йорке потерявшая работу и бойфренда Глория понимает, что ... 9.8 10 4
Info! Золотая раздача, скачанное не засчитывается.
Торрент: Зарегистрирован [2017-08-01 04:45] · скачан: 313 раз
Статус: √ проверено
Размер: 4.32 GB
Как cкачать? Как скачать Моя девушка – монстр через торрент | qTorrent

% Раздел Тема Автор DL S | L
T Фильмы [HD 720p, 1080p] (Хороший звук DUB, MVO) [ 7.94 GB ] Моя девушка – монстр / Colossal [2016 BDRip 1080p] bober100 Скачать
1 | 0
Фильмы 2016 [DVDrip, WEB-DLRip, HDrip] (DUB, MVO) [ 1.41 GB ] Моя девушка – монстр / Colossal [2016 BDRip] - Twi7ter Скачать
1 | 0
Фильмы 2016 [DVDrip, WEB-DLRip, HDrip] (DUB, MVO) [ 1.8 GB ] Моя девушка - монстр / Colossal [2016 BDRip-AVC] bober100 Скачать
1 | 0
Фильмы без перевода [ 27.16 GB ] Моя девушка – монстр / Colossal [2016 BD Remux] [Оригинал-ENG] smaster Скачать
1 | 0
Фильмы 2016 [DVDrip, WEB-DLRip, HDrip] (DUB, MVO) [ 748 MB ] Моя Девушка - Монстр / Colossal [2016 WEB-DLRip] bober100 Скачать
1 | 0
Фильмы (WEB-DL 720p, 1080p) [ 3.61 GB ] Моя девушка – монстр / Colossal [2016 WEB-DL 1080p] killermax2013 Скачать
2 | 0

28-11-2019 20:33  

Отключить всю рекламу на сайте

    Дорогой пользователь! Огромная просьба, поблагодарите релизера, оцените раздачу и оставьте свои комментарий, если Вы скачали Моя девушка – монстр через торрент бесплатно! Внесите свою лепту в развитие PiratBit!
    Комментировать посты могут только пользователи прошедшие не сложную регистрацию
    Показать сообщения:    

    Моя девушка – монстр через торрент
    Скачать бесплатно Моя девушка – монстр
    Моя девушка – монстр скачать торрент
    Моя девушка – монстр смотреть онлайн
    Cкачать фильм Моя девушка – монстр бесплатно
    Моя девушка – монстр скачать торрент в хорошем качестве
    Моя девушка – монстр смотреть онлайн бесплатно в хорошем качестве


    Вы не можете начинать темы
    Вы не можете отвечать на сообщения
    Вы не можете редактировать свои сообщения
    Вы не можете удалять свои сообщения
    Вы не можете голосовать в опросах
    Вы не можете прикреплять файлы к сообщениям
    Вы можете скачивать файлы