>

7.4

iTunes

7.4

2 сезон

9.4

1 сезон

1

7.4

2 сезон

7.2

iTunes

6.0

MVO

13

6.1

iTunes

8.3

Пиратка

30

ULTIMATE

pack

9.9

Лицензия

ВАЖНО

ИГРА 18+

pack

7.3

RePack

MK11

7.7

RePack

jed

7.8

RePack

fifa19

8.5

RePack

RDR2

RePack

NEED FOR SPEED™ PAYBACK

1 сезон

9 сезон

Бесстыжие 9 сезон

Все сериалы

все сериалы на PB.wtf

RePack

FAR CRY 5

Anonymous, доброй ночи, мы катастрофически не успеваем собрать деньги на оплату серверов, помогите нам пожалуйста 5,10,15р., для нас важна любая помощь . В качестве благодарности мы отключим Вам всю рекламу на сайте (укажите свой ник в строку Ваше имя)!

×
  
Magnet ссылка

Стена / The Wall (Колин Минихан) [ 2017 г., триллер, драма, военный, WEB-DLRip-AVC] [AVO] (BadBajo) - ExKinoRay pb.wtf

Стена через торрент pb.wtf

Размер: 1.8 GB | Добавлен: 4 года 5 мес. назад | Торрент скачан:247 раз
Смотреть онлайн Стена | Скачать    Ребята, помогите собрать деньги на оплату серверов!!!

02-08-2017 01:10 Стена Скачать торрент  

Информация о фильме
Название: Стена
Оригинальное название: The Wall
Год выпуска: 2017
Жанр: Триллер
Выпущено: США, Amazon Studios, Big Indie Pictures, Picrow
Продолжительность: 01:29:48
Перевод: BadBajo
Озвучивание: Авторское одноголосое (BadBajo)
Субтитры: Английские
Режиссер: Даг Лайман
В ролях: Аарон Тейлор-Джонсон, Джон Сина, Спенсер Томас, Лэйт Накли

Описание:
Американский стрелок оказывается в ловушке за небольшой стеной и под прицелом своего противника. Герой ловит вражескую радиочастоту и общается с иракским снайпером. Живым с поля боя уйдет лишь один из них.


rating

Файл
Формат: MKV
Качество: WEB-DLRip (AVC)
Видео: MPEG-4 AVC, 1024x422 (2.40:1), ~ 2094 kbps avg, 23.976 FPS, 0.202 bit/pixel
Аудио 1: AC-3, 48.0 KHz, 5.1 ch, 384 Kbps, CBR (Russian)
Аудио 2: AC-3, 48.0 KHz, 5.1 ch, 384 Kbps, CBR (ENG)

Без какой-либо рекламы
General
Unique ID : 230794862394656465690374567754462689084 (0xADA179411AA7AABCB464AED70938773C)
Complete name : D:\The.Wall.2017.AVO.WEB-DLRip.AVC.ExKinoRay.mkv
Format : Matroska
Format version : Version 2
File size : 1.80 GiB
Duration : 1 h 29 min
Overall bit rate : 2 864 kb/s
Movie name : The Wall 2017 from ExKinoRay
Encoded date : UTC 2017-08-01 23:54:34
Writing application : mkvmerge v5.6.0 ('Kenya Kane') built on May 27 2012 16:44:04
Writing library : libebml v1.2.3 + libmatroska v1.3.0
Cover : Yes
Attachments : cover.jpg

Video
ID : 1
Format : AVC
Format/Info : Advanced Video Codec
Format profile : High@L4.1
Format settings, CABAC : Yes
Format settings, ReFrames : 10 frames
Codec ID : V_MPEG4/ISO/AVC
Duration : 1 h 29 min
Bit rate : 2 094 kb/s
Width : 1 024 pixels
Height : 422 pixels
Display aspect ratio : 2.40:1
Frame rate mode : Constant
Frame rate : 23.976 (24000/1001) FPS
Original frame rate : 23.976 (23976/1000) FPS
Color space : YUV
Chroma subsampling : 4:2:0
Bit depth : 8 bits
Scan type : Progressive
Bits/(Pixel*Frame) : 0.202
Stream size : 1.28 GiB (71%)
Title : Enigma
Writing library : x264 core 144 r2525 40bb568
Encoding settings : cabac=1 / ref=10 / deblock=1:-3:-3 / analyse=0x3:0x113 / me=umh / subme=10 / psy=1 / psy_rd=1.05:0.10 / mixed_ref=1 / me_range=32 / chroma_me=1 / trellis=2 / 8x8dct=1 / cqm=0 / deadzone=21,11 / fast_pskip=1 / chroma_qp_offset=-3 / threads=12 / lookahead_threads=3 / sliced_threads=0 / nr=0 / decimate=0 / interlaced=0 / bluray_compat=0 / constrained_intra=0 / bframes=10 / b_pyramid=2 / b_adapt=2 / b_bias=0 / direct=3 / weightb=1 / open_gop=0 / weightp=2 / keyint=240 / keyint_min=23 / scenecut=40 / intra_refresh=0 / rc_lookahead=40 / rc=2pass / mbtree=0 / bitrate=2094 / ratetol=1.0 / qcomp=0.60 / qpmin=0 / qpmax=51 / qpstep=4 / cplxblur=20.0 / qblur=0.5 / vbv_maxrate=50000 / vbv_bufsize=62500 / nal_hrd=none / filler=0 / ip_ratio=1.40 / pb_ratio=1.30 / aq=1:1.00
Default : Yes
Forced : No
Color range : Limited
Color primaries : BT.709
Transfer characteristics : BT.709
Matrix coefficients : BT.709

Audio #1
ID : 2
Format : AC-3
Format/Info : Audio Coding 3
Mode extension : CM (complete main)
Format settings, Endianness : Big
Codec ID : A_AC3
Duration : 1 h 29 min
Bit rate mode : Constant
Bit rate : 384 kb/s
Channel(s) : 6 channels
Channel positions : Front: L C R, Side: L R, LFE
Sampling rate : 48.0 kHz
Frame rate : 31.250 FPS (1536 spf)
Compression mode : Lossy
Stream size : 247 MiB (13%)
Title : BadBajo
Language : Russian
Default : Yes
Forced : No

Audio #2
ID : 3
Format : AC-3
Format/Info : Audio Coding 3
Mode extension : CM (complete main)
Format settings, Endianness : Big
Codec ID : A_AC3
Duration : 1 h 29 min
Bit rate mode : Constant
Bit rate : 384 kb/s
Channel(s) : 6 channels
Channel positions : Front: L C R, Side: L R, LFE
Sampling rate : 48.0 kHz
Frame rate : 31.250 FPS (1536 spf)
Compression mode : Lossy
Stream size : 247 MiB (13%)
Language : English
Default : No
Forced : No

Text
ID : 4
Format : UTF-8
Codec ID : S_TEXT/UTF8
Codec ID/Info : UTF-8 Plain Text
Language : English
Default : No
Forced : No

Menu
00:00:00.000 : en:Opening Sequence
00:06:05.000 : en:Comm Check
00:11:42.000 : en:Taking Cover
00:17:18.000 : en:Crack Bang
00:23:03.000 : en:Stop The Bleeding
00:28:18.000 : en:Where Do You Keep Going?
00:34:14.000 : en:Sniper Math
00:40:05.000 : en:Out Of Water
00:45:38.000 : en:Educate Me
00:51:26.000 : en:When This Is Over
00:57:14.000 : en:Running Back Behind Cover
01:02:40.000 : en:So You Studied?
01:08:22.000 : en:You Listening To Me?
01:14:22.000 : en:Fixing The Radio
01:19:45.000 : en:Time To Fight Back
01:25:33.000 : en:End Credits
Релиз от:

Автор релиза: pb.wtf



Скачать Стена через торрент http://lostpix.com/img/2017-08/02/wp9m25kgzhwb9gyma80scxfe6.jpg Скачать, смотреть онлайн Стена бесплантно в хорошем качестве Описание: Американский стрелок оказывается в ловушке за небольшой стеной и под прицелом своего противника. Герой ловит вражескую ... 8.8 10 8
Info! Золотая раздача, скачанное не засчитывается.
Торрент: Зарегистрирован [2017-08-02 01:10] · скачан: 247 раз
Статус: √ проверено
Размер: 1.8 GB
Как cкачать? Как скачать Стена через торрент | UTorrent

% Раздел Тема Автор DL S | L
Фильмы с авторской озвучкой [ 1.93 GB ] Стена / The Wall [ 2017 военный HDRip-AVC] [AVO] - ExKinoRay Enigma2010 Скачать
1 | 0
Фильмы 2016 [DVDrip, WEB-DLRip, HDrip] (DUB, MVO) [ 2.17 GB ] Великая стена / The Great Wall [2016 BDRip-AVC] DUB [] - ExKinoRay Enigma2010 Скачать
1 | 0

28-11-2019 20:33  

Отключить всю рекламу на сайте

    Дорогой пользователь! Огромная просьба, поблагодарите релизера, оцените раздачу и оставьте свои комментарий, если Вы скачали Стена через торрент бесплатно!
    Комментировать посты могут только пользователи прошедшие не сложную регистрацию
    Показать сообщения:    

    Стена через торрент
    Скачать бесплатно Стена
    Стена скачать торрент
    Стена смотреть онлайн
    Cкачать фильм Стена бесплатно
    Стена скачать торрент в хорошем качестве
    Стена смотреть онлайн бесплатно в хорошем качестве


    Вы не можете начинать темы
    Вы не можете отвечать на сообщения
    Вы не можете редактировать свои сообщения
    Вы не можете удалять свои сообщения
    Вы не можете голосовать в опросах
    Вы не можете прикреплять файлы к сообщениям
    Вы можете скачивать файлы