Ссылка на приватное зеркало всего за 1$. Внимание количество ограничено!!!

OK

1+1

iTunes

мы

OK

1

WEB-DLRip

Джокер

Пифагор

Ведьмак / The Witcher сериал

Лицензия

ПШазам

ОК

Оно 2

iTunes

30
pack

Вам бонус

ВАЖНО

!!Акция!!

Alien_RageХит недели

RePack

Resident Evil 21

ИГРА 18+

pack

RePack

jed

RePack

fifa19

RePack

Assassins Creed: Odyssey

RePack

NEED FOR SPEED™ PAYBACK

4 сезон

9 сезон

Бесстыжие 9 сезон

Все сериалы

все сериалы на PB.wtf

RePack

FAR CRY 5
  

Наваждение / Unforgettable (Дениз Ди Нови ) [2017, триллер, драма, BDRip 720p от potroks] Dub [Лицензия] pb.wtf

Наваждение через торрент pb.wtf

Размер: 4.37 GB | Добавлен: 2 года 5 мес. назад | Торрент скачан:166 раз
Скачать  

02-08-2017 06:03 Наваждение Скачать торрент  

Наваждение / Unforgettable

Год выпуска: 2017
Страна: США / DiNovi Pictures
Жанр: триллер, драма
Продолжительность: 01:40:08
Перевод: Дубляж [Blu-ray CEE]
Субтитры: русские (полные + форс.), английские (Full), английские (SDH), английские (SDH-Colored)
Навигация по главам: есть

Режиссер: Дениз Ди Нови
В ролях:

Розарио Доусон (Julia Banks), Кэтрин Хайгл (Tessa Connover), Джофф Стульц (David Connover), Изабелла Кай Райс (Lily Connover), Алекс Кихано (Miguel), Сара Бёрнс (Sarah), Уитни Каммингс (Ali), Саймон Кассианидес (Michael Vargas), Роберт Уиздом (Detective Pope), Шерил Лэдд (Helen / Lovey), Стефани Эскахеда (Brunette Woman), Кинкейд Уолкер (Saleswoman)

Описание: Тесса Конновер тяжело переживает развод с мужем Дэвидом. Он теперь счастливо помолвлен с Джулией Бэнкс, которая вторгается не только в дом, в котором они когда-то жили с Тессой, но и в жизнь их дочери Лили. Джулия, в своей новой роли жены и мачехи, отчаянно верит, что, наконец, встретила мужчину своей мечты, который поможет ей забыть ее беспокойное прошлое. Но зависть Тессы набирает обороты, и ничто не помешает ей превратить мечту Джулии в ее худший кошмар.



Качество: BDRip 720p
Формат: MKV
Видео: AVC, 1280x720 (16:9), 5356 kbps, 23,976 fps, 0,242 bpp
Аудио №1: AC3 / 5.1 / 48 kHz / 448 kbps / 16 bit | RUS
Аудио №2: AC3 / 5.1 / 48 kHz / 448 kbps / 16 bit | ENG
General
Unique ID : 214475525822147782618648250512084508226 (0xA15A7BD72A3CE847A48B28DFC16B1E42)
Complete name : D:\Navazhdeniye.2017.DUAL.BDRip.720p.-HELLYWOOD.mkv
Format : Matroska
Format version : Version 4 / Version 2
File size : 4.37 GiB
Duration : 1 h 40 min
Overall bit rate : 6 246 kb/s
Movie name : Unforgettable (2017)
Encoded date : UTC 2017-08-02 02:55:53
Writing application : mkvmerge v5.9.0 ('On The Loose') built on Dec 15 2012 16:39:58
Writing library : libebml v1.3.0 + libmatroska v1.4.0

Video
ID : 1
Format : AVC
Format/Info : Advanced Video Codec
Format profile : High@L4.1
Format settings, CABAC : Yes
Format settings, ReFrames : 9 frames
Codec ID : V_MPEG4/ISO/AVC
Duration : 1 h 40 min
Bit rate : 5 356 kb/s
Width : 1 280 pixels
Height : 720 pixels
Display aspect ratio : 16:9
Frame rate mode : Constant
Frame rate : 23.976 (24000/1001) FPS
Color space : YUV
Chroma subsampling : 4:2:0
Bit depth : 8 bits
Scan type : Progressive
Bits/(Pixel*Frame) : 0.242
Stream size : 3.65 GiB (84%)
Title : potroks
Writing library : x264 core 146 r2538 121396c
Encoding settings : cabac=1 / ref=9 / deblock=1:-3:-3 / analyse=0x3:0x113 / me=umh / subme=11 / psy=1 / psy_rd=1.00:0.05 / mixed_ref=1 / me_range=48 / chroma_me=1 / trellis=2 / 8x8dct=1 / cqm=0 / deadzone=21,11 / fast_pskip=0 / chroma_qp_offset=-3 / threads=9 / lookahead_threads=2 / sliced_threads=0 / nr=0 / decimate=0 / interlaced=0 / bluray_compat=0 / constrained_intra=0 / bframes=10 / b_pyramid=2 / b_adapt=2 / b_bias=0 / direct=3 / weightb=1 / open_gop=0 / weightp=2 / keyint=240 / keyint_min=23 / scenecut=40 / intra_refresh=0 / rc_lookahead=60 / rc=2pass / mbtree=0 / bitrate=5356 / ratetol=1.0 / qcomp=0.70 / qpmin=0 / qpmax=69 / qpstep=4 / cplxblur=20.0 / qblur=0.5 / vbv_maxrate=14000 / vbv_bufsize=14000 / nal_hrd=none / filler=0 / ip_ratio=1.40 / pb_ratio=1.30 / aq=1:0.70
Language : English
Default : Yes
Forced : No

Audio #1
ID : 2
Format : AC-3
Format/Info : Audio Coding 3
Mode extension : CM (complete main)
Format settings, Endianness : Big
Codec ID : A_AC3
Duration : 1 h 40 min
Bit rate mode : Constant
Bit rate : 448 kb/s
Channel(s) : 6 channels
Channel positions : Front: L C R, Side: L R, LFE
Sampling rate : 48.0 kHz
Frame rate : 31.250 FPS (1536 spf)
Compression mode : Lossy
Stream size : 321 MiB (7%)
Title : Dub | DD 5.1 @ 448 kbps - Blu-ray CEE
Language : Russian
Default : Yes
Forced : No

Audio #2
ID : 3
Format : AC-3
Format/Info : Audio Coding 3
Mode extension : CM (complete main)
Format settings, Endianness : Big
Codec ID : A_AC3
Duration : 1 h 40 min
Bit rate mode : Constant
Bit rate : 448 kb/s
Channel(s) : 6 channels
Channel positions : Front: L C R, Side: L R, LFE
Sampling rate : 48.0 kHz
Frame rate : 31.250 FPS (1536 spf)
Compression mode : Lossy
Stream size : 321 MiB (7%)
Title : Original | DD 5.1 @ 448 kbps
Language : English
Default : No
Forced : No

Text #1
ID : 4
Format : UTF-8
Codec ID : S_TEXT/UTF8
Codec ID/Info : UTF-8 Plain Text
Title : Forced
Language : Russian
Default : Yes
Forced : No

Text #2
ID : 5
Format : UTF-8
Codec ID : S_TEXT/UTF8
Codec ID/Info : UTF-8 Plain Text
Title : Blu-ray
Language : Russian
Default : No
Forced : No

Text #3
ID : 6
Format : UTF-8
Codec ID : S_TEXT/UTF8
Codec ID/Info : UTF-8 Plain Text
Title : Full
Language : English
Default : No
Forced : No

Text #4
ID : 7
Format : UTF-8
Codec ID : S_TEXT/UTF8
Codec ID/Info : UTF-8 Plain Text
Title : SDH
Language : English
Default : No
Forced : No

Text #5
ID : 8
Format : UTF-8
Codec ID : S_TEXT/UTF8
Codec ID/Info : UTF-8 Plain Text
Title : SDH-Colored
Language : English
Default : No
Forced : No

Menu
00:00:00.000 : en:(01)00:00:00:000
00:09:57.054 : en:(02)00:09:57:054
00:18:48.043 : en:(03)00:18:48:043
00:28:13.983 : en:(04)00:28:13:983
00:36:48.831 : en:(05)00:36:48:831
00:47:02.319 : en:(06)00:47:02:319
00:56:55.370 : en:(07)00:56:55:370
01:08:42.159 : en:(08)01:08:42:159
01:17:40.322 : en:(09)01:17:40:322
01:26:15.628 : en:(10)01:26:15:628
01:37:16.163 : en:(11)01:37:16:163
01:40:07.793 : en:(12)01:40:07:793
pb.wtf



Скачать Наваждение через торрент http://i5.imageban.ru/out/2017/08/02/90e83d59a6dedab119efbe4e23d44719.png Скачать фильм Наваждение через торрент бесплантно в хорошем качестве Описание: Тесса Конновер тяжело переживает развод с мужем Дэвидом. Он теперь счастливо помолвлен с Джулией Бэнкс, которая вторгается не ... 10 10 9
Info! Золотая раздача, скачанное не засчитывается.
Торрент: Зарегистрирован [2017-08-02 06:03] · скачан: 166 раз
Статус: √ проверено
Размер: 4.37 GB
Как cкачать? Как скачать Наваждение через торрент | qTorrent

% Раздел Тема Автор DL S | L
Фильмы (Blu-ray, BD-Remux, HDDVD) [ 25.77 GB ] Наваждение / Unforgettable [2017 BD Remux 1080p] DUB [] bober100 Скачать
1 | 0
T Релизы по Парсеру [Игры, Сериалы и Фильмы и другое...] [ 30.78 GB ] Наваждение / Unforgettable [2017 Blu-Ray 1080p] DUB [ CEE] bober100 Скачать
1 | 0
Фильмы 2017 [DVDrip, WEB-DLRip, HDrip] (DUB, MVO) [ 1.46 GB ] Наваждение / Unforgettable [2017 BDRip] - [] Twi7ter Скачать
1 | 0
Фильмы 2017 [DVDrip, WEB-DLRip, HDrip] (DUB, MVO) [ 2.02 GB ] Наваждение / Unforgettable [2017 BDRip-AVC] DUB [] bober100 Скачать
1 | 0
Фильмы без перевода [ 25.66 GB ] Наваждение / Unforgettable [2017 BDRemux] [Оригинал-ENG] smaster Скачать
1 | 0
Фильмы [HD 720p, 1080p] (Хороший звук DUB, MVO) [ 13.29 GB ] Наваждение / Unforgettable [2017 BDRip 1080p] - -Lexx- Скачать
1 | 0

28-11-2019 20:33  

Отключить всю рекламу на сайте

02-08-2017 06:18 Наваждение Скачать торрент  

Противостояние куриц, ммм, какой интересный сценарий.pb.wtf



02-08-2017 07:15 Наваждение Скачать торрент  

да ладно на разок пойдет, посмотреть как они сиськами меряются pb.wtf



04-08-2017 13:24 Наваждение Скачать торрент  

а они реально сиськами меряются? pb.wtf



    Дорогой пользователь! Огромная просьба, поблагодарите релизера, оцените раздачу и оставьте свои комментарий, если Вы скачали Наваждение через торрент бесплатно! Внесите свою лепту в развитие PiratBit!
    Комментировать посты могут только пользователи прошедшие не сложную регистрацию
    Показать сообщения:    

    Наваждение через торрент
    Скачать бесплатно Наваждение
    Наваждение скачать торрент
    Наваждение смотреть онлайн
    Cкачать фильм Наваждение бесплатно
    Наваждение скачать торрент в хорошем качестве
    Наваждение смотреть онлайн бесплатно в хорошем качестве


    Вы не можете начинать темы
    Вы не можете отвечать на сообщения
    Вы не можете редактировать свои сообщения
    Вы не можете удалять свои сообщения
    Вы не можете голосовать в опросах
    Вы не можете прикреплять файлы к сообщениям
    Вы можете скачивать файлы