новый адрес
Мега распродажа FORZA HORIZON 4 ULTIMATE+ВСЕ DLC+ОНЛАЙН всего за 499р. 349 руб. (супер цена). Внимание количество ограничено!!!

iTunes

1+1

iTunes

мы

iTunes

1

iTunes

Чернобыль

iTunes

Ральф против интернета

Лицензия

ПШазам

Лицензия

Игра престолов

Лицензия

30
pack

ВАЖНО

!!Акция!!

Alien_RageХит недели

RePack

Resident Evil 21

ИГРА 18+

pack

RePack

Metro:Exodus

!!Акция!!

Alien_Rage

RePack

fifa19

RePack

Assassins Creed: Odyssey

RePack

NEED FOR SPEED™ PAYBACK

3 сезон

9 сезон

Бесстыжие 9 сезон

Все сериалы

все сериалы на PB.wtf

RePack

FAR CRY 5
Ребята, катастрофически не хватает 1900р. для оплаты серверов за Октябрь (всвязи с блокировками трафик упал в 3 раза), 1-2р., выручайте.
  

Дорогой мой человек (Иосиф Хейфиц) [1958, СССР, драма, мелодрама, DVDRip от AVP Studio] pb.wtf

Дорогой мой человек через торрент pb.wtf

Размер: 1.45 GB | Добавлен: 2 года 3 мес. назад | Торрент скачан:36 раз
Скачать  

02-08-2017 15:09 Дорогой мой человек Скачать торрент  

Дорогой мой человек
Страна: СССР
Год выпуска: 1959
Студия: Ленфильм

Жанр: драма, мелодрама
Продолжительность: 01:42:01

Перевод: не требуется
Оригинальная аудиодорожка: русский
Cубтитры: нет

Режиссер: Иосиф Хейфиц

В ролях:
Алексей Баталов, Инна Макарова, Петр Константинов, Леонид Быков, Борис Чирков, Иван Переверзев, Юрий Медведев, Цецилия Мансурова, Лидия Штыкан, Петр Кирюткин, Павел Усовниченко, Михаил Екатерининский, Любовь Малиновская, Б.Виноградова, В.Журавская...
Об актёрах подробней

Описание:
Врач Владимир Устименко — человек долга и чести, предан делу, которому служит, и предан одной-единственной любви, которую проносит через всю жизнь: любви к Варе Степановой, взбалмошной девчонке, мечтающей стать великой актрисой, но ставшей геологом. Война жестоко вмешается в судьбы героев и ещё больше напутает в их, и без того хрупких, отношениях. После долгой и неожиданной разлуки герои впервые встретятся во фронтовом госпитале, где военврач Устименко будет оперировать не приходящую в сознание «трудную» пациентку — Варю Степанову…

Фильм о настоящем человеке.
Мне трудно вспомнить хотя бы еще один фильм о настоящем человеке.
Этот фильм не о коммунизме и не о войне. Этот фильм о личности, о принципах, о человеке, который верен слову и своей чести, долгу.
Забытые сейчас ценности, так необходимые сегодня в жизни, — воспеты в призме одной личности. Человека с большой буквы.
Фильм о непростой судьбе необыкновенного человека.
Необыкновенного именно потому, что в действиях своих он руководствуется принципами совести, морали и нравственности, чувством долга и полным отсутствием эгоизма.
Не размениваясь на регалии и звания, накопительство, главный герой фильма не боится испытаний и трудностей.
До этого фильма надо дорасти.
«Пропаганда» коммунизма занимает весьма посредственное место, скорей имеет место пропаганда человеческих ценностей. Весьма глупо оценивать фильм как «советский».
Этот фильм можно и нужно пересматривать ни один раз, наслаждаясь игрой великолепных актеров.
Именно такие фильмы надо пересматривать постоянно и показывать детям.
Исходник: DVD9 R5
Тип релиза: DVDRip
Контейнер: AVI

Видео: 720x528 (4:3), 25 fps, XviD ~ 1840 kbps avg, 0.194 bit/pixel
Аудио: 48 kHz, Dolby AC3 2.0, 192 kbps

Раздача от:
Общее
Полное имя : Dorogoy.moy.chelovek.1958.DVDRip_[New-team]_by_AVP_Studio.avi
Формат : AVI
Формат/Информация : Audio Video Interleave
Размер файла : 1,45 Гбайт
Продолжительность : 1 ч. 42 м.
Общий поток : 2042 Кбит/сек
Программа кодирования : VirtualDubMod 1.5.10.3 | www.virtualdub-fr.org || (build 2550/release)
Библиотека кодирования : VirtualDubMod build 2550/release

Видео
Идентификатор : 0
Формат : MPEG-4 Visual
Профиль формата : Advanced Simple@L5
Параметр BVOP формата : 1
Параметр QPel формата : Нет
Параметр GMC формата : Без точки перехода
Параметр матрицы формата : Выборочная
Идентификатор кодека : XVID
Идентификатор кодека/Подсказка : XviD
Продолжительность : 1 ч. 42 м.
Битрейт : 1840 Кбит/сек
Ширина : 720 пикселей
Высота : 528 пикселей
Соотношение сторон : 4:3
Частота кадров : 25,000 кадров/сек
Цветовое пространство : YUV
Субдискретизация насыщенности : 4:2:0
Битовая глубина : 8 бит
Тип развёртки : Прогрессивная
Метод сжатия : С потерями
Бит/(Пиксели*Кадры) : 0.194
Размер потока : 1,31 Гбайт (90%)
Библиотека кодирования : XviD 65

Аудио
Идентификатор : 1
Формат : AC-3
Формат/Информация : Audio Coding 3
Параметр Endianness формата : Big
Идентификатор кодека : 2000
Продолжительность : 1 ч. 42 м.
Вид битрейта : Постоянный
Битрейт : 192 Кбит/сек
Каналы : 2 канала
Расположение каналов : Front: L R
Частота : 48,0 КГц
Частота кадров : 31,250 кадров/сек (1536 SPF)
Битовая глубина : 16 бит
Метод сжатия : С потерями
Размер потока : 140 Мбайт (9%)
Выравнивание : Разделение по промежуткам
Продолжительность промежутка : 40 мс. (1,00 видеокадр)
Время предзагрузки промежутка : 500 мс
pb.wtf



Скачать Дорогой мой человек через торрент http://picplus.ru/img/1907/04/e4028b7a.png Скачать фильм Дорогой мой человек через торрент бесплантно в хорошем качестве Описание:Врач Владимир Устименко — человек долга и чести, предан делу, которому служит, и предан одной-единственной любви, которую проносит ... 10 10 1
Info! Золотая раздача, скачанное не засчитывается.
Торрент: Зарегистрирован [2017-08-02 15:09] · скачан: 36 раз
Статус: √ проверено
Размер: 1.45 GB
Как cкачать? Как скачать Дорогой мой человек через торрент | qTorrent

% Раздел Тема Автор DL S | L
Кино СССР [ 1.46 GB ] Дорогой мой человек [1958 СССР DVDRip-AVC от AVP Studio] AVP Studio Скачать
3 | 0
Кино СССР [ 746 MB ] Дорогой мой человек [1958 СССР DVDRip от AVP Studio] AVP Studio Скачать
1 | 0
Архив (Отечественный Рок) [ 158 MB ] Есть Есть Есть - Дорогой мой человек - 2011 mp3 320 kbps danii Скачать
1 | 0


>> Регистрируемся здесь <<






Отзывы и комментарии о схеме читаем и пишем здесь: ---> Отзывы и комментарии о схеме

Новые благодарочки в телеграм довольных пользователей:
скриншот   скриншот   скриншот   скриншот   скриншот
    Дорогой пользователь! Огромная просьба, поблагодарите релизера, оцените раздачу и оставьте свои комментарий, если Вы скачали Дорогой мой человек через торрент бесплатно! Внесите свою лепту в развитие PiratBit!
    Комментировать посты могут только пользователи прошедшие не сложную регистрацию
    Показать сообщения:    

    Дорогой мой человек через торрент
    Скачать бесплатно Дорогой мой человек
    Дорогой мой человек скачать торрент
    Дорогой мой человек смотреть онлайн
    Cкачать фильм Дорогой мой человек бесплатно
    Дорогой мой человек скачать торрент в хорошем качестве
    Дорогой мой человек смотреть онлайн бесплатно в хорошем качестве


    Вы не можете начинать темы
    Вы не можете отвечать на сообщения
    Вы не можете редактировать свои сообщения
    Вы не можете удалять свои сообщения
    Вы не можете голосовать в опросах
    Вы не можете прикреплять файлы к сообщениям
    Вы можете скачивать файлы