новый адрес
Ссылка на приватное зеркало всего за 1$. Внимание количество ограничено!!!

iTunes

1+1

iTunes

мы

iTunes

1

iTunes

Чернобыль

iTunes

Ральф против интернета

Лицензия

ПШазам

Лицензия

Оно 2

Лицензия

30
pack

Вам бонус

ВАЖНО

!!Акция!!

Alien_RageХит недели

RePack

Resident Evil 21

ИГРА 18+

pack

RePack

jed

!!Акция!!

Alien_Rage

RePack

fifa19

RePack

Assassins Creed: Odyssey

RePack

NEED FOR SPEED™ PAYBACK

3 сезон

9 сезон

Бесстыжие 9 сезон

Все сериалы

все сериалы на PB.wtf

RePack

FAR CRY 5
Ребята, катастрофически не хватает 1900р. для оплаты серверов за Октябрь (всвязи с блокировками трафик упал в 3 раза), 1-2р., выручайте.
  

Дорогой мой человек (Иосиф Хейфиц) [1958, СССР, драма, мелодрама, DVDRip от AVP Studio] pb.wtf

Дорогой мой человек через торрент pb.wtf

Размер: 746 MB | Добавлен: 2 года 3 мес. назад | Торрент скачан:22 раза
Скачать  

02-08-2017 15:12 Дорогой мой человек Скачать торрент  

Дорогой мой человек
Страна: СССР
Год выпуска: 1959
Студия: Ленфильм

Жанр: драма, мелодрама
Продолжительность: 01:42:01

Перевод: не требуется
Оригинальная аудиодорожка: русский
Cубтитры: нет

Режиссер: Иосиф Хейфиц

В ролях:
Алексей Баталов, Инна Макарова, Петр Константинов, Леонид Быков, Борис Чирков, Иван Переверзев, Юрий Медведев, Цецилия Мансурова, Лидия Штыкан, Петр Кирюткин, Павел Усовниченко, Михаил Екатерининский, Любовь Малиновская, Б.Виноградова, В.Журавская...
Об актёрах подробней

Описание:
Врач Владимир Устименко — человек долга и чести, предан делу, которому служит, и предан одной-единственной любви, которую проносит через всю жизнь: любви к Варе Степановой, взбалмошной девчонке, мечтающей стать великой актрисой, но ставшей геологом. Война жестоко вмешается в судьбы героев и ещё больше напутает в их, и без того хрупких, отношениях. После долгой и неожиданной разлуки герои впервые встретятся во фронтовом госпитале, где военврач Устименко будет оперировать не приходящую в сознание «трудную» пациентку — Варю Степанову…

Фильм о настоящем человеке.
Мне трудно вспомнить хотя бы еще один фильм о настоящем человеке.
Этот фильм не о коммунизме и не о войне. Этот фильм о личности, о принципах, о человеке, который верен слову и своей чести, долгу.
Забытые сейчас ценности, так необходимые сегодня в жизни, — воспеты в призме одной личности. Человека с большой буквы.
Фильм о непростой судьбе необыкновенного человека.
Необыкновенного именно потому, что в действиях своих он руководствуется принципами совести, морали и нравственности, чувством долга и полным отсутствием эгоизма.
Не размениваясь на регалии и звания, накопительство, главный герой фильма не боится испытаний и трудностей.
До этого фильма надо дорасти.
«Пропаганда» коммунизма занимает весьма посредственное место, скорей имеет место пропаганда человеческих ценностей. Весьма глупо оценивать фильм как «советский».
Этот фильм можно и нужно пересматривать ни один раз, наслаждаясь игрой великолепных актеров.
Именно такие фильмы надо пересматривать постоянно и показывать детям.
Исходник: DVD9 R5
Тип релиза: DVDRip
Контейнер: AVI

Видео: 576x432 (4:3), 25 fps, XviD ~ 886 kbps avg, 0.142 bit/pixel
Аудио: 48 kHz, MP3 2.0, 128 kbps

Раздача от:
Общее
Полное имя : Dorogoy.moy.chelovek.1958.DVDRip-745_[New-team]_by_AVP_Studio.avi
Формат : AVI
Формат/Информация : Audio Video Interleave
Размер файла : 746 Мбайт
Продолжительность : 1 ч. 41 м.
Общий поток : 1024 Кбит/сек
Программа кодирования : VirtualDubMod 1.5.10.3 | www.virtualdub-fr.org || (build 2550/release)
Библиотека кодирования : VirtualDubMod build 2550/release

Видео
Идентификатор : 0
Формат : MPEG-4 Visual
Профиль формата : Advanced Simple@L5
Параметр BVOP формата : 1
Параметр QPel формата : Нет
Параметр GMC формата : Без точки перехода
Параметр матрицы формата : Выборочная
Идентификатор кодека : XVID
Идентификатор кодека/Подсказка : XviD
Продолжительность : 1 ч. 41 м.
Битрейт : 886 Кбит/сек
Ширина : 576 пикселей
Высота : 432 пикселя
Соотношение сторон : 4:3
Частота кадров : 25,000 кадров/сек
Цветовое пространство : YUV
Субдискретизация насыщенности : 4:2:0
Битовая глубина : 8 бит
Тип развёртки : Прогрессивная
Метод сжатия : С потерями
Бит/(Пиксели*Кадры) : 0.142
Размер потока : 645 Мбайт (87%)
Библиотека кодирования : XviD 73

Аудио
Идентификатор : 1
Формат : MPEG Audio
Версия формата : Version 1
Профиль формата : Layer 3
Идентификатор кодека : 55
Идентификатор кодека/Подсказка : MP3
Продолжительность : 1 ч. 41 м.
Вид битрейта : Постоянный
Битрейт : 128 Кбит/сек
Каналы : 2 канала
Частота : 48,0 КГц
Метод сжатия : С потерями
Размер потока : 93,2 Мбайт (13%)
Выравнивание : Соединение по промежуткам
Продолжительность промежутка : 40 мс. (1,00 видеокадр)
Время предзагрузки промежутка : 504 мс.
Библиотека кодирования : LAME3.99r
Настройки программы : -m s -V 4 -q 2 -lowpass 17 -b 128
pb.wtf



Скачать Дорогой мой человек через торрент http://picplus.ru/img/1907/04/e4028b7a.png Скачать фильм Дорогой мой человек через торрент бесплантно в хорошем качестве Описание:Врач Владимир Устименко — человек долга и чести, предан делу, которому служит, и предан одной-единственной любви, которую проносит ... 10 10 1
Info! Золотая раздача, скачанное не засчитывается.
Торрент: Зарегистрирован [2017-08-02 15:12] · скачан: 22 раз
Статус: √ проверено
Размер: 746 MB
Как cкачать? Как скачать Дорогой мой человек через торрент | qTorrent

% Раздел Тема Автор DL S | L
Кино СССР [ 1.46 GB ] Дорогой мой человек [1958 СССР DVDRip-AVC от AVP Studio] AVP Studio Скачать
2 | 0
Кино СССР [ 1.45 GB ] Дорогой мой человек [1958 СССР DVDRip от AVP Studio] AVP Studio Скачать
1 | 0
Архив (Отечественный Рок) [ 158 MB ] Есть Есть Есть - Дорогой мой человек - 2011 mp3 320 kbps danii Скачать
1 | 0
    Дорогой пользователь! Огромная просьба, поблагодарите релизера, оцените раздачу и оставьте свои комментарий, если Вы скачали Дорогой мой человек через торрент бесплатно! Внесите свою лепту в развитие PiratBit!
    Комментировать посты могут только пользователи прошедшие не сложную регистрацию
    Показать сообщения:    

    Дорогой мой человек через торрент
    Скачать бесплатно Дорогой мой человек
    Дорогой мой человек скачать торрент
    Дорогой мой человек смотреть онлайн
    Cкачать фильм Дорогой мой человек бесплатно
    Дорогой мой человек скачать торрент в хорошем качестве
    Дорогой мой человек смотреть онлайн бесплатно в хорошем качестве


    Вы не можете начинать темы
    Вы не можете отвечать на сообщения
    Вы не можете редактировать свои сообщения
    Вы не можете удалять свои сообщения
    Вы не можете голосовать в опросах
    Вы не можете прикреплять файлы к сообщениям
    Вы можете скачивать файлы