2 сезон

iTunes

MVO

1

2 сезон

iTunes

iTunes

1 сезон

RePack

30

Новинка

ВАЖНО

ИГРА 18+

pack

RePack

MK11
pack

Легкие деньги

RePack

jed

RePack

fifa19

RePack

RDR2

RePack

NEED FOR SPEED™ PAYBACK

4 сезон

9 сезон

Бесстыжие 9 сезон

Все сериалы

все сериалы на PB.wtf

RePack

FAR CRY 5

Anonymous, добрый вечер, мы не успеваем собрать деньги на оплату серверов за декабрь и январь, помогите нам пожалуйста в это трудное время. В качестве благодарности мы отключим Вам всю рекламу на сайте (укажите свой ник в строку Ваше имя)!

×
  
Magnet ссылка

Живое / Life (Даниэль Эспиноса) [2017, Ужасы, фантастика, триллер, HDRip-AVC] DUB [Лицензия] - ExKinoRay pb.wtf

Живое через торрент pb.wtf

Размер: 1.45 GB | Добавлен: 3 года 5 мес. назад | Торрент скачан:170 раз
Скачать  

02-08-2017 22:03 Живое Скачать торрент  

Информация о фильме
Название: Живое
Оригинальное название: Life
Год выпуска: 2017
Жанр: Ужасы, фантастика, триллер
Страна: США
Студия: Columbia Pictures, Skydance Productions, Sony Pictures Entertainment (SPE)
Продолжительность: 01:43:58
Перевод: Дублированный | Лицензия
Субтитры: Русские (форсированные, полные), английские, украинские
Режиссер: Даниэль Эспиноса
В ролях: Джейк Джилленхол, Ребекка Фергюсон, Райан Рейнольдс, Ольга Дыховичная, Эрион Бакаре, Хироюки Санада, Наоко Мори, Александр Нгуйен, Камиль Уоррен-Тейлор, Хиу Ун-Син

Описание: Ужасающий научно-фантастический триллер о команде ученых на борту международной космической станции, чья исследовательская экспедиция наполняется первобытным страхом, когда они обнаруживают быстро развивающуюся форму жизни, которая уничтожила все на Марсе, а теперь угрожает экипажу и всему живому на Земле.

rating

Файл
Формат: MKV
Качество: HDRip-AVC
Видео: AVC, 720х302 (2.40:1), 1543 kbps, 23,976 fps, 0,296 bpp
Аудио: 48 kHz, AC3, 5.1, 448 Kbps | RUS |

Навигация по главам: есть
General
Unique ID : 195979082144852069192109525511421425080 (0x937032C2529EDD058A71A886B23DF5B8)
Complete name : D:\Life.2017.HDRip.AVC.ExKinoRay.mkv
Format : Matroska
Format version : Version 2
File size : 1.45 GiB
Duration : 1 h 43 min
Overall bit rate : 1 993 kb/s
Movie name : Живое (2017) from ExKinoRay
Encoded date : UTC 2017-08-02 20:59:53
Writing application : mkvmerge v5.6.0 ('Kenya Kane') built on May 27 2012 16:44:04
Writing library : libebml v1.2.3 + libmatroska v1.3.0

Video
ID : 1
Format : AVC
Format/Info : Advanced Video Codec
Format profile : High@L4.1
Format settings, CABAC : Yes
Format settings, ReFrames : 11 frames
Codec ID : V_MPEG4/ISO/AVC
Duration : 1 h 43 min
Bit rate : 1 543 kb/s
Width : 720 pixels
Height : 302 pixels
Display aspect ratio : 2.40:1
Frame rate mode : Constant
Frame rate : 23.976 (24000/1001) FPS
Original frame rate : 23.976 (23976/1000) FPS
Color space : YUV
Chroma subsampling : 4:2:0
Bit depth : 8 bits
Scan type : Progressive
Bits/(Pixel*Frame) : 0.296
Stream size : 1.09 GiB (76%)
Title : Enigma
Writing library : x264 core 144 r2525 40bb568
Encoding settings : cabac=1 / ref=11 / deblock=1:-3:-3 / analyse=0x3:0x113 / me=umh / subme=10 / psy=1 / psy_rd=1.00:0.00 / mixed_ref=1 / me_range=32 / chroma_me=1 / trellis=2 / 8x8dct=1 / cqm=0 / deadzone=21,11 / fast_pskip=1 / chroma_qp_offset=-2 / threads=12 / lookahead_threads=2 / sliced_threads=0 / nr=0 / decimate=0 / interlaced=0 / bluray_compat=0 / constrained_intra=0 / bframes=10 / b_pyramid=2 / b_adapt=2 / b_bias=0 / direct=3 / weightb=1 / open_gop=0 / weightp=2 / keyint=240 / keyint_min=23 / scenecut=40 / intra_refresh=0 / rc_lookahead=40 / rc=2pass / mbtree=0 / bitrate=1543 / ratetol=1.0 / qcomp=0.60 / qpmin=0 / qpmax=51 / qpstep=4 / cplxblur=20.0 / qblur=0.5 / vbv_maxrate=50000 / vbv_bufsize=62500 / nal_hrd=none / filler=0 / ip_ratio=1.40 / pb_ratio=1.30 / aq=1:0.90
Default : Yes
Forced : No
Color range : Limited
Color primaries : BT.709
Transfer characteristics : BT.709
Matrix coefficients : BT.709

Audio
ID : 2
Format : AC-3
Format/Info : Audio Coding 3
Mode extension : CM (complete main)
Format settings, Endianness : Big
Codec ID : A_AC3
Duration : 1 h 43 min
Bit rate mode : Constant
Bit rate : 448 kb/s
Channel(s) : 6 channels
Channel positions : Front: L C R, Side: L R, LFE
Sampling rate : 48.0 kHz
Frame rate : 31.250 FPS (1536 spf)
Compression mode : Lossy
Stream size : 333 MiB (22%)
Title : MVO (Лицензия)
Language : Russian
Default : Yes
Forced : No

Text #1
ID : 3
Format : UTF-8
Codec ID : S_TEXT/UTF8
Codec ID/Info : UTF-8 Plain Text
Title : Forced
Language : Russian
Default : Yes
Forced : No

Text #2
ID : 4
Format : UTF-8
Codec ID : S_TEXT/UTF8
Codec ID/Info : UTF-8 Plain Text
Language : Russian
Default : No
Forced : No

Text #3
ID : 5
Format : UTF-8
Codec ID : S_TEXT/UTF8
Codec ID/Info : UTF-8 Plain Text
Language : Ukrainian
Default : No
Forced : No

Text #4
ID : 6
Format : UTF-8
Codec ID : S_TEXT/UTF8
Codec ID/Info : UTF-8 Plain Text
Title : Forced
Language : English
Default : No
Forced : No

Text #5
ID : 7
Format : UTF-8
Codec ID : S_TEXT/UTF8
Codec ID/Info : UTF-8 Plain Text
Language : English
Default : No
Forced : No

Menu
00:00:00.000 : en:00:00:00.000
00:09:32.864 : en:00:09:32.864
00:13:13.084 : en:00:13:13.084
00:15:36.894 : en:00:15:36.894
00:19:35.341 : en:00:19:35.341
00:24:57.454 : en:00:24:57.454
00:34:36.992 : en:00:34:36.992
00:40:45.109 : en:00:40:45.109
00:43:59.303 : en:00:43:59.303
00:52:21.805 : en:00:52:21.805
00:58:33.927 : en:00:58:33.927
01:06:37.785 : en:01:06:37.785
01:11:43.257 : en:01:11:43.257
01:17:50.875 : en:01:17:50.875
01:22:39.621 : en:01:22:39.621
01:28:34.309 : en:01:28:34.309
Релиз от:

Автор релиза: pb.wtf



Скачать Живое через торрент http://i94.fastpic.ru/big/2017/0605/87/5d82be28e27767f61f65d957af6d6287.jpg Скачать фильм Живое через торрент бесплантно в хорошем качестве Описание: Ужасающий научно-фантастический триллер о команде ученых на борту международной космической станции, чья исследовательская ... 10 10 4
Info! Золотая раздача, скачанное не засчитывается.
Торрент: Зарегистрирован [2017-08-02 22:03] · скачан: 170 раз
Статус: √ проверено
Размер: 1.45 GB
Как cкачать? Как скачать Живое через торрент | UTorrent

28-11-2019 20:33  

Отключить всю рекламу на сайте

    Дорогой пользователь! Огромная просьба, поблагодарите релизера, оцените раздачу и оставьте свои комментарий, если Вы скачали Живое через торрент бесплатно! Внесите свою лепту в развитие PiratBit!
    Комментировать посты могут только пользователи прошедшие не сложную регистрацию
    Показать сообщения:    

    Живое через торрент
    Скачать бесплатно Живое
    Живое скачать торрент
    Живое смотреть онлайн
    Cкачать фильм Живое бесплатно
    Живое скачать торрент в хорошем качестве
    Живое смотреть онлайн бесплатно в хорошем качестве


    Вы не можете начинать темы
    Вы не можете отвечать на сообщения
    Вы не можете редактировать свои сообщения
    Вы не можете удалять свои сообщения
    Вы не можете голосовать в опросах
    Вы не можете прикреплять файлы к сообщениям
    Вы можете скачивать файлы