2 сезон

iTunes

MVO

1

2 сезон

iTunes

iTunes

1 сезон

RePack

30

Ultimate

ВАЖНО

ИГРА 18+

pack

RePack

MK11
pack

Легкие деньги

RePack

jed

RePack

fifa19

RePack

RDR2

RePack

NEED FOR SPEED™ PAYBACK

4 сезон

9 сезон

Бесстыжие 9 сезон

Все сериалы

все сериалы на PB.wtf

RePack

FAR CRY 5

Anonymous, добрый вечер, мы не успеваем собрать деньги на оплату серверов за декабрь и январь, помогите нам пожалуйста в это трудное время. В качестве благодарности мы отключим Вам всю рекламу на сайте (укажите свой ник в строку Ваше имя)!

×
  
Magnet ссылка

Живое / Life (Даниэль Эспиноса ) [2017, ужасы, фантастика, триллер, BDRip-AVC от potroks] Dub [Лицензия] pb.wtf

Живое через торрент pb.wtf

Размер: 1.46 GB | Добавлен: 3 года 5 мес. назад | Торрент скачан:862 раза
Скачать  

03-08-2017 06:48 Живое Скачать торрент  

Живое / Life

Год выпуска: 2017
Страна: США / Columbia Pictures, Skydance Productions, Sony Pictures Entertainment (SPE)
Жанр: ужасы, фантастика, триллер
Продолжительность: 01:43:58
Перевод: Дубляж [Blu-ray EUR]
Субтитры: русские (полные + форс.)
Навигация по главам: есть

Режиссер: Даниэль Эспиноса
В ролях:

Хироюки Санада (Sho Murakami), Райан Рейнольдс (Rory Adams), Ребекка Фергюсон (Miranda North), Джейк Джилленхол (David Jordan), Ольга Дыховичная (Ekaterina Golovkina), Эрион Бакаре (Hugh Derry), Хесус Дель Орден (Student 2), Аллен МакЛин (Student 1), Лейла Грэйс Боствик-Ридделл (Student 3), Мари Гвелесиани (Student 4), Дэвид Мьюир (20 / 20 Anchor), Элизабет Варгас (20 / 20 Anchor)

Описание: Группа исследователей с международного космического корабля обнаруживает жизнь на Марсе. Они еще не подозревают, какие события повлечет за собой их открытие.



Качество: BDRip-AVC
Формат: MKV
Видео: AVC, 1032x432 (2.40:1), 1563 kbps, 23,976 fps
Аудио: русский / AC3 / 5.1 / 48 kHz / 448 kbps / 16 bit
General
Unique ID : 189870607365273832609339901698002328469 (0x8ED7BFB3376E9DEEAABE48B915DF1B95)
Complete name : D:\Zhyvoe.2017.RUS.BDRip.x264.-HELLYWOOD.mkv
Format : Matroska
Format version : Version 4 / Version 2
File size : 1.46 GiB
Duration : 1 h 43 min
Overall bit rate : 2 013 kb/s
Movie name : Life (2017)
Encoded date : UTC 2017-08-03 05:57:43
Writing application : mkvmerge v5.9.0 ('On The Loose') built on Dec 15 2012 16:39:58
Writing library : libebml v1.3.0 + libmatroska v1.4.0

Video
ID : 1
Format : AVC
Format/Info : Advanced Video Codec
Format profile : High@L4.1
Format settings, CABAC : Yes
Format settings, ReFrames : 11 frames
Codec ID : V_MPEG4/ISO/AVC
Duration : 1 h 43 min
Bit rate : 1 563 kb/s
Width : 1 032 pixels
Height : 432 pixels
Display aspect ratio : 2.40:1
Frame rate mode : Constant
Frame rate : 23.976 (24000/1001) FPS
Color space : YUV
Chroma subsampling : 4:2:0
Bit depth : 8 bits
Scan type : Progressive
Bits/(Pixel*Frame) : 0.146
Stream size : 1.11 GiB (76%)
Title : potroks
Writing library : x264 core 152 r2851M ba24899
Encoding settings : cabac=1 / ref=11 / deblock=1:-2:-2 / analyse=0x3:0x132 / me=umh / subme=11 / psy=1 / psy_rd=1.00:0.05 / mixed_ref=1 / me_range=48 / chroma_me=1 / trellis=2 / 8x8dct=1 / cqm=0 / deadzone=21,11 / fast_pskip=0 / chroma_qp_offset=-3 / threads=9 / lookahead_threads=2 / sliced_threads=0 / nr=0 / decimate=0 / interlaced=0 / bluray_compat=0 / constrained_intra=0 / bframes=12 / b_pyramid=2 / b_adapt=2 / b_bias=0 / direct=3 / weightb=1 / open_gop=0 / weightp=2 / keyint=240 / keyint_min=23 / scenecut=40 / intra_refresh=0 / rc_lookahead=0 / rc=2pass / mbtree=0 / bitrate=1563 / ratetol=1.0 / qcomp=0.70 / qpmin=0 / qpmax=69 / qpstep=4 / cplxblur=20.0 / qblur=0.5 / vbv_maxrate=62500 / vbv_bufsize=44642 / nal_hrd=none / filler=0 / ip_ratio=1.40 / pb_ratio=1.30 / aq=1:0.80
Language : English
Default : Yes
Forced : No

Audio
ID : 2
Format : AC-3
Format/Info : Audio Coding 3
Mode extension : CM (complete main)
Format settings, Endianness : Big
Codec ID : A_AC3
Duration : 1 h 43 min
Bit rate mode : Constant
Bit rate : 448 kb/s
Channel(s) : 6 channels
Channel positions : Front: L C R, Side: L R, LFE
Sampling rate : 48.0 kHz
Frame rate : 31.250 FPS (1536 spf)
Compression mode : Lossy
Stream size : 333 MiB (22%)
Title : Dub | DD 5.1 @ 448 kbps - Blu-ray EUR
Language : Russian
Default : Yes
Forced : No

Text #1
ID : 3
Format : UTF-8
Codec ID : S_TEXT/UTF8
Codec ID/Info : UTF-8 Plain Text
Title : Forced
Language : Russian
Default : Yes
Forced : No

Text #2
ID : 4
Format : UTF-8
Codec ID : S_TEXT/UTF8
Codec ID/Info : UTF-8 Plain Text
Title : iTunes
Language : Russian
Default : No
Forced : No

Menu #1
00:00:00.000 : :(01)00:00:00:000
00:09:32.863 : :(02)00:09:32:863
00:13:13.083 : :(03)00:13:13:083
00:15:36.894 : :(04)00:15:36:894
00:19:35.340 : :(05)00:19:35:340
00:24:57.454 : :(06)00:24:57:454
00:34:36.991 : :(07)00:34:36:991
00:40:45.109 : :(08)00:40:45:109
00:43:59.303 : :(09)00:43:59:303
00:52:21.805 : :(10)00:52:21:805
00:58:33.927 : :(11)00:58:33:927
01:06:37.785 : :(12)01:06:37:785
01:11:43.257 : :(13)01:11:43:257
01:17:50.874 : :(14)01:17:50:874
01:22:39.621 : :(15)01:22:39:621
01:28:34.309 : :(16)01:28:34:309

Menu #2
00:00:00.000 : :(01)00:00:00:000
00:09:32.863 : :(02)00:09:32:863
00:13:13.083 : :(03)00:13:13:083
00:15:36.894 : :(04)00:15:36:894
00:19:35.340 : :(05)00:19:35:340
00:24:57.454 : :(06)00:24:57:454
00:34:36.991 : :(07)00:34:36:991
00:40:45.109 : :(08)00:40:45:109
00:43:59.303 : :(09)00:43:59:303
00:52:21.805 : :(10)00:52:21:805
00:58:33.927 : :(11)00:58:33:927
01:06:37.785 : :(12)01:06:37:785
01:11:43.257 : :(13)01:11:43:257
01:17:50.874 : :(14)01:17:50:874
01:22:39.621 : :(15)01:22:39:621
01:28:34.309 : :(16)01:28:34:309
pb.wtf



Скачать Живое через торрент http://i3.imageban.ru/out/2017/08/03/7f3984d77d84de2b4799b55379a2c264.png Скачать фильм Живое через торрент бесплантно в хорошем качестве Описание: Группа исследователей с международного космического корабля обнаруживает жизнь на Марсе. Они еще не подозревают, какие события ... 9.8 10 20
Info! Золотая раздача, скачанное не засчитывается.
Торрент: Зарегистрирован [2017-08-03 06:48] · скачан: 862 раз
Статус: √ проверено
Размер: 1.46 GB
Как cкачать? Как скачать Живое через торрент | UTorrent

% Раздел Тема Автор DL S | L
Порно фильмы с сюжетом [ 1.26 GB ] Любовь Которой Мы Живем / The Love We Live [2020 All Sex Couples WEB-DL] bashai5 Скачать
2 | 0
Классика зарубежного кино [ 8.63 GB ] Живём один раз / You Only Live Once [1937 нуар BDRip 1080p by msltel] MVO DVO msltel Скачать
1 | 0
Классика зарубежного кино [ 3.35 GB ] Живём один раз / You Only Live Once [1937 нуар BDRip 720p by msltel] MVO DVO msltel Скачать
1 | 0
Классика зарубежного кино [ 1.75 GB ] Живём один раз / You Only Live Once [1937 нуар BDRip by msltel] MVO DVO msltel Скачать
1 | 0
Фильмы [HD 720p, 1080p] (Хороший звук DUB, MVO) [ 14.37 GB ] Пожизненно! / Life [1999 BDRip 1080p] [MVO] + [DVO] + [AVO] killermax2013 Скачать
1 | 0
Фильмы (Blu-ray, BD-Remux, HDDVD) [ 20.95 GB ] Житие Брайана по Монти Пайтону / Жизнь Брайана по Монти Пайтон / Monty Python's Life of Brian [1979 BDRemux 1080p] 4x [AVO] + [VO] killermax2013 Скачать
1 | 0
Мультфильмы / Cartoons [ 806 MB ] Мы живем / The Lie We Live [2017 Gonzo Adult Animation Cumshot WEB-DL 720p Оригинальный] DJASFUL Скачать
1 | 0

28-11-2019 20:33  

Отключить всю рекламу на сайте

04-12-2017 16:02 Живое Скачать торрент  

высокая оценка только за нехэппи энд. не 10 потому что, ну извините господа, то ли все дело в мудаке-негре, которому было жалко эту сущность, то ли сценаристы нафантазировали, что какая-то дрянь устраивает горе-герою-ученому "крепкое рукопожатие", а он и усом не ведет, чтобы ей помешать, помочь себе второй рукой и т.д. и т.п... в общем, все мертвы в итоге. смело. 9.pb.wtf



12-12-2017 21:21 Живое Скачать торрент  

Ребекка Фергюсон просто конфетка )pb.wtf



    Дорогой пользователь! Огромная просьба, поблагодарите релизера, оцените раздачу и оставьте свои комментарий, если Вы скачали Живое через торрент бесплатно! Внесите свою лепту в развитие PiratBit!
    Комментировать посты могут только пользователи прошедшие не сложную регистрацию
    Показать сообщения:    

    Живое через торрент
    Скачать бесплатно Живое
    Живое скачать торрент
    Живое смотреть онлайн
    Cкачать фильм Живое бесплатно
    Живое скачать торрент в хорошем качестве
    Живое смотреть онлайн бесплатно в хорошем качестве


    Вы не можете начинать темы
    Вы не можете отвечать на сообщения
    Вы не можете редактировать свои сообщения
    Вы не можете удалять свои сообщения
    Вы не можете голосовать в опросах
    Вы не можете прикреплять файлы к сообщениям
    Вы можете скачивать файлы