новый адрес пиратбит piratbit
MEGA NEWS Получи личный уникальный адрес сайта и защити себя от блокировок. Внимание количество ограничено!!!

iTunes

1+1

iTunes

мы

iTunes

1

iTunes

Чернобыль

iTunes

Ральф против интернета

Лицензия

ПШазам

Лицензия

Игра престолов

Лицензия

30
pack

ВАЖНО

!!Акция!!

Alien_RageХит недели

RePack

Resident Evil 21

ИГРА 18+

pack

RePack

Metro:Exodus

!!Акция!!

Alien_Rage

RePack

fifa19

RePack

Assassins Creed: Odyssey

RePack

NEED FOR SPEED™ PAYBACK

3 сезон

9 сезон

Бесстыжие 9 сезон

Все сериалы

все сериалы на PB.wtf

RePack

FAR CRY 5
Ребята, катастрофически не хватает 1900р. для оплаты серверов за АВГУСТ (всвязи с блокировками трафик упал в 3 раза), 1-2р., выручайте.
  

Фабрика звезд / L'uomo delle stelle (Джузеппе Торнаторе) [1995 г., Драма, DVDRip-AVC] от ExKinoRay pb.wtf

Фабрика звезд через торрент pb.wtf

Размер: 1.87 GB | Добавлен: 2 года 2 мес. назад | Торрент скачан:1 раз
Скачать  

03-08-2017 15:03 Фабрика звезд Скачать торрент  

Фабрика звезд / L'uomo delle stelle
Год выпуска: 1995
Страна: Италия
Жанр: Драма
Продолжительность: 01:49:11

Режиссер: Джузеппе Торнаторе

Премьера в мире: 7 сентября 1995

rating

В ролях: Серджио Кастеллитто, Тициана Лодато, Франко Скальдати, Леопольдо Триесте, Клелия Рондинелла, Тано Чимароза, Никола Ди Пинто, Костантино Каррозза, Джейн Александр, Тони Сперандео

Описание: В золотой век кино каждый зритель мечтал вытянуть счастливый билетик в мир грез и увидеть свое имя на афише фильма. Но только один человек догадался, какие выгоды сулит беззаветная любовь к кинематографу, и придумал, как поставить производство звезд экрана на конвейер.

Качество: DVDRip-AVC
Формат: MKV
Видео кодек: MPEG4
Аудио кодек: AC3
Видео: MPEG-4 AVC, 2000 Кбит/с, 712x436@1012x436, 25 кадров/сек
Аудио#1: Русский (AC3, 2 ch, 192 Кбит/с, 48 КГц)
Аудио#2: Итальянский (AC3, 2 ch, 256 Кбит/с, 48 КГц)
Релиз от:




raw [info]: 712x436p 64:45 @ 25/1 fps (cfr)
x264 [info]: using SAR=64/45
x264 [info]: using cpu capabilities: MMX2 SSE2Fast LZCNT
x264 [info]: profile High, level 4.1
x264 [info]: frame I:979 Avg QP:16.18 size: 51032
x264 [info]: frame P:35125 Avg QP:18.89 size: 19942
x264 [info]: frame B:127675 Avg QP:20.46 size: 6949
x264 [info]: consecutive B-frames: 1.7% 2.6% 4.8% 28.6% 16.4% 29.7% 5.6% 8.5% 1.0% 0.6% 0.2% 0.2% 0.1% 0.1% 0.0% 0.0% 0.0%
-----
Общее
Уникальный идентификатор : 178645673544033168854463028898667786444 (0x8665E7BBEEA59128B245E1B2036D70CC)
Полное имя : E:\Fabrika.Zvezd.1995.DVDRip.AVC.ExKinoRay.mkv
Формат : Matroska
Версия формата : Version 2
Размер файла : 1,87 Гбайт
Продолжительность : 1 ч. 49 м.
Общий поток : 2450 Кбит/сек
Дата кодирования : UTC 2017-08-03 11:38:05
Программа кодирования : mkvmerge v7.8.0 ('River Man') 32bit built on Apr 3 2015 12:11:22
Библиотека кодирования : libebml v1.3.1 + libmatroska v1.4.2

Видео
Идентификатор : 1
Формат : AVC
Формат/Информация : Advanced Video Codec
Профиль формата : High@L4.1
Параметр CABAC формата : Да
Параметр ReFrames формата : 14 кадров
Идентификатор кодека : V_MPEG4/ISO/AVC
Продолжительность : 1 ч. 49 м.
Битрейт : 2000 Кбит/сек
Ширина : 712 пикселей
Высота : 436 пикселей
Соотношение сторон : 2,35:1
Соотношение сторон в оригинале : 2,35:1
Режим частоты кадров : Постоянный
Частота кадров : 25,000 кадров/сек
Цветовое пространство : YUV
Субдискретизация насыщенности : 4:2:0
Битовая глубина : 8 бит
Тип развёртки : Прогрессивная
Бит/(Пиксели*Кадры) : 0.258
Размер потока : 1,49 Гбайт (80%)
Библиотека кодирования : x264 core 148 r2638 7599210
Настройки программы : cabac=1 / ref=14 / deblock=1:-2:-2 / analyse=0x3:0x133 / me=umh / subme=10 / psy=1 / psy_rd=1.05:0.15 / mixed_ref=1 / me_range=32 / chroma_me=1 / trellis=2 / 8x8dct=1 / cqm=0 / deadzone=21,11 / fast_pskip=0 / chroma_qp_offset=-3 / threads=4 / lookahead_threads=1 / sliced_threads=0 / nr=0 / decimate=0 / interlaced=0 / bluray_compat=0 / constrained_intra=0 / bframes=16 / b_pyramid=2 / b_adapt=2 / b_bias=0 / direct=3 / weightb=1 / open_gop=0 / weightp=2 / keyint=250 / keyint_min=25 / scenecut=40 / intra_refresh=0 / rc=2pass / mbtree=0 / bitrate=2000 / ratetol=1.0 / qcomp=0.60 / qpmin=0 / qpmax=69 / qpstep=4 / cplxblur=20.0 / qblur=0.5 / ip_ratio=1.40 / pb_ratio=1.30 / aq=1:1.00
Язык : English
Default : Да
Forced : Нет
Цветовой диапазон : Limited
Основные цвета : BT.601 NTSC
Характеристики трансфера : BT.601
Коэффициенты матрицы : BT.601

Аудио #1
Идентификатор : 2
Формат : AC-3
Формат/Информация : Audio Coding 3
Расширение режима : CM (complete main)
Параметр Endianness формата : Big
Идентификатор кодека : A_AC3
Продолжительность : 1 ч. 49 м.
Вид битрейта : Постоянный
Битрейт : 192 Кбит/сек
Каналы : 2 канала
Расположение каналов : Front: L R
Частота : 48,0 КГц
Частота кадров : 31,250 кадров/сек (1536 spf)
Метод сжатия : С потерями
Размер потока : 150 Мбайт (8%)
Язык : Russian
Default : Да
Forced : Нет

Аудио #2
Идентификатор : 3
Формат : AC-3
Формат/Информация : Audio Coding 3
Профиль формата : Dolby Digital
Расширение режима : CM (complete main)
Параметр Endianness формата : Big
Идентификатор кодека : A_AC3
Продолжительность : 1 ч. 49 м.
Вид битрейта : Постоянный
Битрейт : 256 Кбит/сек
Каналы : 2 канала
Расположение каналов : Front: L R
Частота : 48,0 КГц
Частота кадров : 31,250 кадров/сек (1536 spf)
Метод сжатия : С потерями
Размер потока : 200 Мбайт (10%)
Язык : Italian
Default : Нет
Forced : Нет

pb.wtf



Скачать Фабрика звезд через торрент http://s42.radikal.ru/i096/1708/ba/48dff13e444e.jpg Скачать фильм Фабрика звезд через торрент бесплантно в хорошем качестве Описание: В золотой век кино каждый зритель мечтал вытянуть счастливый билетик в мир грез и увидеть свое имя на афише фильма. Но только ... 10 10 1
Info! Золотая раздача, скачанное не засчитывается.
Торрент: Зарегистрирован [2017-08-03 15:03] · скачан: 1 раз
Статус: √ проверено
Размер: 1.87 GB
Как cкачать? Как скачать Фабрика звезд через торрент | qTorrent


>> Регистрируемся здесь <<






Отзывы и комментарии о схеме читаем и пишем здесь: ---> Отзывы и комментарии о схеме

Новые благодарочки в телеграм довольных пользователей:
скриншот   скриншот   скриншот   скриншот   скриншот

03-08-2017 16:01 Фабрика звезд Скачать торрент  

Топик был перенесен из форума Оформление раздач (Кино, Видео и ТВ) в форум Фильмы до 2000 г.


schultzpb.wtf



    Дорогой пользователь! Огромная просьба, поблагодарите релизера, оцените раздачу и оставьте свои комментарий, если Вы скачали Фабрика звезд через торрент бесплатно! Внесите свою лепту в развитие PiratBit!
    Комментировать посты могут только пользователи прошедшие не сложную регистрацию
    Показать сообщения:    

    Фабрика звезд через торрент
    Скачать бесплатно Фабрика звезд
    Фабрика звезд скачать торрент
    Фабрика звезд смотреть онлайн
    Cкачать фильм Фабрика звезд бесплатно
    Фабрика звезд скачать торрент в хорошем качестве
    Фабрика звезд смотреть онлайн бесплатно в хорошем качестве


    Вы не можете начинать темы
    Вы не можете отвечать на сообщения
    Вы не можете редактировать свои сообщения
    Вы не можете удалять свои сообщения
    Вы не можете голосовать в опросах
    Вы не можете прикреплять файлы к сообщениям
    Вы можете скачивать файлы