Ссылка на приватное зеркало всего за 1$. Внимание количество ограничено!!!

OK

1+1

iTunes

мы

OK

1

WEB-DLRip

Джокер

Пифагор

Ведьмак / The Witcher сериал

Лицензия

ПШазам

ОК

Оно 2

iTunes

30
pack

Вам бонус

ВАЖНО

!!Акция!!

Alien_RageХит недели

RePack

Resident Evil 21

ИГРА 18+

pack

RePack

jed

!!Акция!!

Alien_Rage

RePack

fifa19

RePack

Assassins Creed: Odyssey

RePack

NEED FOR SPEED™ PAYBACK

4 сезон

9 сезон

Бесстыжие 9 сезон

Все сериалы

все сериалы на PB.wtf

RePack

FAR CRY 5
  

Красавица и чудовище / Beauty and the Beast (Билл Кондон) [2017, мюзикл, фэнтези, мелодрама, BDRip 720p от potroks] DUB + AVO pb.wtf

Красавица и чудовище через торрент pb.wtf

Раздают: 1 [ 21 KB/s ]
Размер: 6.37 GB | Добавлен: 2 года 5 мес. назад | Торрент скачан:380 раз
Скачать  

03-08-2017 15:33 Красавица и чудовище Скачать торрент  

Красавица и чудовище / Beauty and the Beast

Год выпуска: 2017
Страна: США / Walt Disney Pictures, Mandeville Films
Жанр: мюзикл, фэнтези, мелодрама, семейный
Продолжительность: 02:09:16
Перевод: Дубляж [Blu-ray CEE], aвторский (одноголосый)
Субтитры: русские, английские (Full + SDH + SDH-Colored)
Навигация по главам: есть

Режиссер: Билл Кондон
В ролях:

Эмма Уотсон (Belle), Дэн Стивенс (Beast), Люк Эванс (Gaston), Джош Гад (LeFou), Кевин Клайн (Maurice), Хэтти Морахэн (Agathe / Enchantress), Хейдн Гвин (Clothilde), Джерард Хоран (Jean the Potter), Рэй Фиарон (Père Robert), Юэн МакГрегор (Lumière), Иэн МакКеллен (Cogsworth), Эмма Томпсон (Mrs. Potts)

Описание: Обозлённая Волшебница превратила принца Адама в отвратительное чудовище за то, что тот был злым, самовлюблённым и грубым. Чтобы снять чары с себя и слуг своего замка, ему необходимо научиться быть добрым, любить и быть любимым. Произойти это должно до того, как с розы, подаренной Волшебницей, упадёт последний лепесток.



Качество: BDRip 720p
Формат: MKV
Видео: AVC, 1280x536 (2.40:1), 5134 kbps, 23,976 fps, 0,312 bpp
Аудио №1: AC3 / 5.1 / 48 kHz / 640 kbps / 16 bit | Dub - Blu-ray CEE
Аудио №2: AC3 / 5.1 / 48 kHz / 640 kbps / 16 bit | AVO - Ю.Живов
Аудио №3: AC3 / 5.1 / 48 kHz / 640 kbps / 16 bit | ENG
General
Unique ID : 212787567605560479101734466025429893509 (0xA015651337B44E32AE5A75A4412B8185)
Complete name : D:\Krasavitca.i.Chudovische.2017.2xRus.Eng.BDRip.720p.-HELLYWOOD.mkv
Format : Matroska
Format version : Version 4 / Version 2
File size : 6.37 GiB
Duration : 2 h 9 min
Overall bit rate : 7 056 kb/s
Movie name : Beauty and the Beast (2017)
Encoded date : UTC 2017-07-31 09:18:47
Writing application : mkvmerge v5.9.0 ('On The Loose') built on Dec 15 2012 16:39:58
Writing library : libebml v1.3.0 + libmatroska v1.4.0

Video
ID : 1
Format : AVC
Format/Info : Advanced Video Codec
Format profile : High@L4.1
Format settings, CABAC : Yes
Format settings, ReFrames : 9 frames
Codec ID : V_MPEG4/ISO/AVC
Duration : 2 h 9 min
Bit rate : 5 134 kb/s
Width : 1 280 pixels
Height : 536 pixels
Display aspect ratio : 2.40:1
Frame rate mode : Constant
Frame rate : 23.976 (24000/1001) FPS
Color space : YUV
Chroma subsampling : 4:2:0
Bit depth : 8 bits
Scan type : Progressive
Bits/(Pixel*Frame) : 0.312
Stream size : 4.51 GiB (71%)
Title : potroks
Writing library : x264 core 146 r2538 121396c
Encoding settings : cabac=1 / ref=9 / deblock=1:-3:-3 / analyse=0x3:0x113 / me=umh / subme=11 / psy=1 / psy_rd=1.00:0.06 / mixed_ref=1 / me_range=48 / chroma_me=1 / trellis=2 / 8x8dct=1 / cqm=0 / deadzone=21,11 / fast_pskip=0 / chroma_qp_offset=-3 / threads=9 / lookahead_threads=2 / sliced_threads=0 / nr=0 / decimate=0 / interlaced=0 / bluray_compat=0 / constrained_intra=0 / bframes=10 / b_pyramid=2 / b_adapt=2 / b_bias=0 / direct=3 / weightb=1 / open_gop=0 / weightp=2 / keyint=240 / keyint_min=23 / scenecut=40 / intra_refresh=0 / rc_lookahead=60 / rc=2pass / mbtree=0 / bitrate=5134 / ratetol=1.0 / qcomp=0.70 / qpmin=0 / qpmax=69 / qpstep=4 / cplxblur=20.0 / qblur=0.5 / vbv_maxrate=14000 / vbv_bufsize=14000 / nal_hrd=none / filler=0 / ip_ratio=1.40 / pb_ratio=1.30 / aq=1:0.80
Language : English
Default : Yes
Forced : No

Audio #1
ID : 2
Format : AC-3
Format/Info : Audio Coding 3
Mode extension : CM (complete main)
Format settings, Endianness : Big
Codec ID : A_AC3
Duration : 2 h 9 min
Bit rate mode : Constant
Bit rate : 640 kb/s
Channel(s) : 6 channels
Channel positions : Front: L C R, Side: L R, LFE
Sampling rate : 48.0 kHz
Frame rate : 31.250 FPS (1536 spf)
Compression mode : Lossy
Stream size : 592 MiB (9%)
Title : Dub | DD 5.1 @ 640 kbps - Blu-ray CEE
Language : Russian
Default : Yes
Forced : No

Audio #2
ID : 3
Format : AC-3
Format/Info : Audio Coding 3
Mode extension : CM (complete main)
Format settings, Endianness : Big
Codec ID : A_AC3
Duration : 2 h 9 min
Bit rate mode : Constant
Bit rate : 640 kb/s
Channel(s) : 6 channels
Channel positions : Front: L C R, Side: L R, LFE
Sampling rate : 48.0 kHz
Frame rate : 31.250 FPS (1536 spf)
Compression mode : Lossy
Stream size : 592 MiB (9%)
Title : AVO | DD 5.1 @ 640 kbps - Yu.Zhivov
Language : Russian
Default : No
Forced : No

Audio #3
ID : 4
Format : AC-3
Format/Info : Audio Coding 3
Mode extension : CM (complete main)
Format settings, Endianness : Big
Codec ID : A_AC3
Duration : 2 h 9 min
Bit rate mode : Constant
Bit rate : 640 kb/s
Channel(s) : 6 channels
Channel positions : Front: L C R, Side: L R, LFE
Sampling rate : 48.0 kHz
Frame rate : 31.250 FPS (1536 spf)
Compression mode : Lossy
Stream size : 592 MiB (9%)
Title : Original | DD 5.1 @ 640 kbps
Language : English
Default : No
Forced : No

Text #1
ID : 5
Format : UTF-8
Codec ID : S_TEXT/UTF8
Codec ID/Info : UTF-8 Plain Text
Title : iTunes
Language : Russian
Default : No
Forced : No

Text #2
ID : 6
Format : UTF-8
Codec ID : S_TEXT/UTF8
Codec ID/Info : UTF-8 Plain Text
Title : Full
Language : English
Default : No
Forced : No

Text #3
ID : 7
Format : UTF-8
Codec ID : S_TEXT/UTF8
Codec ID/Info : UTF-8 Plain Text
Title : SDH
Language : English
Default : No
Forced : No

Text #4
ID : 8
Format : UTF-8
Codec ID : S_TEXT/UTF8
Codec ID/Info : UTF-8 Plain Text
Title : SDH-Colored
Language : English
Default : No
Forced : No

Menu
00:00:00.000 : :Once Upon A Time
00:04:36.276 : :"Belle"
00:08:06.528 : :Monsiour Gaston
00:11:18.261 : :"How Does A Moment Last Forever" (Music Box)
00:15:21.546 : :"Belle" (Reprise)
00:18:57.386 : :Our Unwitting Host
00:25:05.921 : :"Forever Can Spare A Minute"
00:31:41.566 : :The East Wing
00:36:08.708 : :"Gaston"
00:42:32.258 : :Lonely
00:47:01.318 : :"Be Our Guest"
00:54:44.990 : :Saved By The Beast
01:00:43.557 : :"Days In The Sun"
01:07:40.932 : :"Something There"
01:14:38.224 : :"How Does A Moment Last Forever" (Montmartre)
01:19:43.696 : :Your Troubled Mind
01:22:02.751 : :"Beauty And The Beast"
01:28:53.370 : :"Evermore"
01:34:01.302 : :"The Mob Song"
01:38:10.176 : :"Attack!"
01:45:23.692 : :"I Am Not A Beast"
01:49:13.964 : :The Final Petal
01:55:54.197 : :"Beauty And The Beast" (Finale)
01:58:49.497 : :End Credits
pb.wtf



Скачать Красавица и чудовище через торрент http://i4.imageban.ru/out/2017/08/03/17271ed3d9366393f4da73fa2515fccc.png Скачать фильм Красавица и чудовище через торрент бесплантно в хорошем качестве Описание: Обозлённая Волшебница превратила принца Адама в отвратительное чудовище за то, что тот был злым, самовлюблённым и грубым. Чтобы ... 9 10 2
Info! Золотая раздача, скачанное не засчитывается.
Торрент: Зарегистрирован [2017-08-03 15:33] · скачан: 380 раз
Статус: √ проверено
Размер: 6.37 GB
Как cкачать? Как скачать Красавица и чудовище через торрент | qTorrent

% Раздел Тема Автор DL S | L
Зарубежные Мультфильмы (BDRip 1080p, 720p, Blu-ray, BD-Remux) [ 26.2 GB ] Красавица и чудовище / Beauty and the Beast [1991 мультфильм мюзикл BDRemux 1080p] [Diamond Edition] DUB + MVO + DVO + 3xAVO - KORSAR kisa1980 Скачать
3 | 0

28-11-2019 20:33  

Отключить всю рекламу на сайте

03-08-2017 23:24 Красавица и чудовище Скачать торрент  

бл.. 3й скрин агонь) что же она там держит с таким лицом))))))pb.wtf



04-08-2017 02:47 Красавица и чудовище Скачать торрент  

Тот случай, когда чудовище красивее чем красавица.pb.wtf



    Дорогой пользователь! Огромная просьба, поблагодарите релизера, оцените раздачу и оставьте свои комментарий, если Вы скачали Красавица и чудовище через торрент бесплатно! Внесите свою лепту в развитие PiratBit!
    Комментировать посты могут только пользователи прошедшие не сложную регистрацию
    Показать сообщения:    

    Красавица и чудовище через торрент
    Скачать бесплатно Красавица и чудовище
    Красавица и чудовище скачать торрент
    Красавица и чудовище смотреть онлайн
    Cкачать фильм Красавица и чудовище бесплатно
    Красавица и чудовище скачать торрент в хорошем качестве
    Красавица и чудовище смотреть онлайн бесплатно в хорошем качестве


    Вы не можете начинать темы
    Вы не можете отвечать на сообщения
    Вы не можете редактировать свои сообщения
    Вы не можете удалять свои сообщения
    Вы не можете голосовать в опросах
    Вы не можете прикреплять файлы к сообщениям
    Вы можете скачивать файлы