Ссылка на приватное зеркало нашего сайта всего за 1$. Внимание количество ограничено!!!

2 сезон

iTunes

1 сезон

1

2 сезон

2 сезон

iTunes

1 сезон

RePack

30

Ultimate

ВАЖНО

ИГРА 18+

pack

RePack

MK11
pack

Забери бонус

RePack

jed

!!Акция!!

Alien_Rage

RePack

fifa19

RePack

Assassins Creed: Odyssey

RePack

NEED FOR SPEED™ PAYBACK

4 сезон

9 сезон

Бесстыжие 9 сезон

Все сериалы

все сериалы на PB.wtf

RePack

FAR CRY 5
  

Охота на Унабомбера / Manhunt: Unabomber / Сезон: 1 / Серии 1-8 из 8 (Грег Яйтанс / Greg Yaitanes) [2017 , США, драма, криминал, WEBRip-AVC] MVO [BaibaKo] pb.wtf

Охота на Унабомбера через торрент pb.wtf

Размер: 5.15 GB | Добавлен: 3 года 2 мес. назад | Торрент скачан:57 раз
Скачать  

04-08-2017 00:18 Охота на Унабомбера Скачать торрент  

Охота на Унабомбера / Manhunt: Unabomber


  • Год выпуска: 2017
  • Страна: США
  • Жанр: драма, криминал
  • Продолжительность: 00:42:40 (Серия)
  • Перевод: Профессиональный многоголосый [BaibaKo]
  • Режиссер: Грег Яйтанс / Greg Yaitanes
  • В ролях:

    Пол Беттани (Ted Kaczynski), Джейн Линч (Janet Reno), Сэм Уортингтон (Jim «Fitz» Fitzgerald), Лорен Франдсен (Mean Girl 1), Роуэн Бусед (Bird Watcher 2), Дизель (Ernie Espisito), Will Murden (Sean Fitzgerald), Carter Zier (Ryan Fitzgerald), Colby Zier (Ryan Fitzgerald), Яна Аллен (Heidi Shumway), Грифф Ферст (Burkhardt), Ребекка Хендерсон (Judy Clarke)


  • История противостояния офицера ФБР Джима Фицджеральда и опасного преступника Теодора Качински по прозвищу Унабомбер, рассылавшего по почте самодельные бомбы.
  • Рейтинг:



  • Качество: WEBRip-AVC
  • Формат: :MPEG-4
  • Видео кодек: AVC
  • Аудио кодек: AC3
  • Видео: 1024x576 (16:9), 1783 kbps, 23,976 fps, 0,126 bpp
  • Аудио №1: русский / 2.0 / 48 kHz / 192 kbps / 16 bit |[BaibaKo]|
  • Аудио №2: английский / 2.0 / 48 kHz / 192 kbps / 16 bit
  • Релиз от: GEKADOL

    Внимание! Раздача ведётся путём добавления новых серий; при каждом добавлении создаётся новый торрент. Чтобы начать докачку новой серии, пользователям необходимо сделать следующее:
    (1) остановить скачивание,
    (2) удалить старый торрент у себя из клиента (старые серии удалять не надо),
    (3) скачать новый торрент и запустить его у себя в клиенте вместо старого, при этом указать клиенту путь в старую папку куда и должно происходить скачивание новых серий.
    Ваш клиент при этом должен произвести хеширование (проверку) старой папки (если не производит сам - помогите ему сделать это), и будет докачивать только те серии которых у вас ещё нет. Старые серии при этом не удаляются, а продолжают раздаваться!
    Eсли вы уже удалили старые серии, то предотвратить повторную закачку старых серий можно, отжав галочку в соответствующих местах при запуске нового торрента. По возможности, желательно не удалять старые серии как можно дольше чтобы релизёр не столько продолжал раздавать старые серии, а смог сконцентрироваться на новых.

    General
    Complete name : F:\Охота на Унабомбера (Manhunt Unabomber)\Manhunt.Unabomber.s01e01.WEBRip-AVC.Rus.Eng.BaibaKo.tv.mp4
    Format : MPEG-4
    Format profile : Base Media
    Codec ID : isom (isom/iso2/avc1/mp41)
    File size : 663 MiB
    Duration : 42 min
    Overall bit rate : 2 172 kb/s
    Writing application : XviD4PSP 7.0.396 DAILY
    HDVideo : Yes
    encoding_info : MATROSKA / WEBM > MP4 Произвольный / H264 > X264 CBR 2000kbps HQ / AC3 > AC3 CBR 192kbps / AC3 > AC3 CBR 192kbps

    Video
    ID : 1
    Format : AVC
    Format/Info : Advanced Video Codec
    Format profile : High@L3.1
    Format settings, CABAC : Yes
    Format settings, ReFrames : 4 frames
    Codec ID : avc1
    Codec ID/Info : Advanced Video Coding
    Duration : 42 min
    Bit rate : 1 783 kb/s
    Nominal bit rate : 2 000 kb/s
    Width : 1 024 pixels
    Height : 576 pixels
    Display aspect ratio : 16:9
    Frame rate mode : Constant
    Frame rate : 23.976 (24000/1001) FPS
    Color space : YUV
    Chroma subsampling : 4:2:0
    Bit depth : 8 bits
    Scan type : Progressive
    Bits/(Pixel*Frame) : 0.126
    Stream size : 544 MiB (82%)
    Writing library : x264 core 152 r2851M ba24899
    Encoding settings : cabac=1 / ref=3 / deblock=1:-1:-1 / analyse=0x3:0x133 / me=hex / subme=7 / psy=1 / psy_rd=1.00:0.20 / mixed_ref=1 / me_range=16 / chroma_me=1 / trellis=1 / 8x8dct=1 / cqm=0 / deadzone=21,11 / fast_pskip=1 / chroma_qp_offset=-3 / threads=5 / lookahead_threads=1 / sliced_threads=0 / nr=0 / decimate=1 / interlaced=0 / bluray_compat=0 / constrained_intra=0 / bframes=3 / b_pyramid=2 / b_adapt=2 / b_bias=0 / direct=3 / weightb=1 / open_gop=0 / weightp=2 / keyint=230 / keyint_min=23 / scenecut=40 / intra_refresh=0 / rc_lookahead=40 / rc=cbr / mbtree=1 / bitrate=2000 / ratetol=1.0 / qcomp=0.60 / qpmin=0 / qpmax=69 / qpstep=4 / vbv_maxrate=2000 / vbv_bufsize=1428 / nal_hrd=none / filler=0 / ip_ratio=1.40 / aq=1:1.00

    Audio #1
    ID : 2
    Format : AC-3
    Format/Info : Audio Coding 3
    Mode extension : CM (complete main)
    Format settings, Endianness : Big
    Codec ID : ac-3
    Duration : 42 min
    Bit rate mode : Constant
    Bit rate : 192 kb/s
    Channel(s) : 2 channels
    Channel positions : Front: L R
    Sampling rate : 48.0 kHz
    Frame rate : 31.250 FPS (1536 spf)
    Bit depth : 16 bits
    Compression mode : Lossy
    Stream size : 58.6 MiB (9%)
    Language : Russian
    Default : Yes
    Alternate group : 1

    Audio #2
    ID : 3
    Format : AC-3
    Format/Info : Audio Coding 3
    Mode extension : CM (complete main)
    Format settings, Endianness : Big
    Codec ID : ac-3
    Duration : 42 min
    Bit rate mode : Constant
    Bit rate : 192 kb/s
    Channel(s) : 2 channels
    Channel positions : Front: L R
    Sampling rate : 48.0 kHz
    Frame rate : 31.250 FPS (1536 spf)
    Bit depth : 16 bits
    Compression mode : Lossy
    Stream size : 58.6 MiB (9%)
    Language : English
    Default : No
    Alternate group : 1



    Скриншоты:
    скриншот   скриншот   скриншот   скриншот   скриншот   скриншот   скриншот  
    скриншот  

    Раздача ведётся путём добавления новых серий. Добавлена 7,8 серия (14.09.2017).Просьба перекачать торрент файл.

    pb.wtf



  • Скачать Охота на Унабомбера через торрент http://i94.fastpic.ru/big/2017/0804/bf/5d9d7fa40c6cf1600d9443ca226081bf.jpg Скачать фильм Охота на Унабомбера через торрент бесплантно в хорошем качестве qw.png История противостояния офицера ФБР Джима Фицджеральда и опасного преступника Теодора Качински по прозвищу Унабомбер, рассылавшего ... 9.5 10 10
    Info! Золотая раздача, скачанное не засчитывается.
    Торрент: Зарегистрирован [2017-09-14 11:12] · скачан: 57 раз
    Статус: √ проверено
    Размер: 5.15 GB
    Как cкачать? Как скачать Охота на Унабомбера через торрент | qTorrent

    % Раздел Тема Автор DL S | L
    Зарубежные сериалы [ 19.91 GB ] Охота на Унабомбера / Manhunt: Unabomber / Сезон 1 / Серии 1-8 из 8 [2017 WEBRip 1080p] [MVO] killermax2013 Скачать
    1 | 0
    Зарубежные сериалы [ 3.91 GB ] Охота на Унабомбера / Manhunt: Unabomber / Сезон 1 / Серии 1-8 из 8 [2017 WEBRip] [MVO] killermax2013 Скачать
    2 | 0
    Зарубежные сериалы [ 11.65 GB ] Охота на Унабомбера / Manhunt: Unabomber / Сезон 1 / Серии 1-8 из 8 [2017 WEBRip 720p] [MVO] killermax2013 Скачать
    1 | 0
    Зарубежные сериалы [ 11.13 GB ] Охота на Унабомбера / Manhunt: Unabomber / Сезон 1 / Серии 1-8 из 8 [2017 WEBRip 720p] MVO [BaibaKo] bober100 Скачать
    1 | 0
    Зарубежные сериалы [ 3.91 GB ] Охота на Унабомбера / Manhunt: Unabomber / Сезон 1 / Серии 1-8 из 8 [2017 WEBRip] MVO [BaibaKo] bober100 Скачать
    1 | 0


    Последний раз редактировалось: GEKADOL (2017-09-14 11:12), всего редактировалось 4 раз(а)

    28-11-2019 20:33  

    Отключить всю рекламу на сайте

    11-08-2017 05:16 Охота на Унабомбера Скачать торрент  

    ....посмотрим!...p.s...спасибо)pb.wtf



    25-08-2017 01:52 Охота на Унабомбера Скачать торрент  

    Stargate_Universe писал(а):

    ....посмотрим!...p.s...спасибо)

    pb.wtf



      Дорогой пользователь! Огромная просьба, поблагодарите релизера, оцените раздачу и оставьте свои комментарий, если Вы скачали Охота на Унабомбера через торрент бесплатно! Внесите свою лепту в развитие PiratBit!
      Комментировать посты могут только пользователи прошедшие не сложную регистрацию
      Показать сообщения:    

      Охота на Унабомбера через торрент
      Скачать бесплатно Охота на Унабомбера
      Охота на Унабомбера скачать торрент
      Охота на Унабомбера смотреть онлайн
      Cкачать фильм Охота на Унабомбера бесплатно
      Охота на Унабомбера скачать торрент в хорошем качестве
      Охота на Унабомбера смотреть онлайн бесплатно в хорошем качестве


      Вы не можете начинать темы
      Вы не можете отвечать на сообщения
      Вы не можете редактировать свои сообщения
      Вы не можете удалять свои сообщения
      Вы не можете голосовать в опросах
      Вы не можете прикреплять файлы к сообщениям
      Вы можете скачивать файлы