Ссылка на приватное зеркало нашего сайта всего за 1$. Внимание количество ограничено!!!

2 сезон

iTunes

1 сезон

1

iTunes

iTunes

iTunes

1 сезон

RePack

30

ИГРА 18+

pack

ВАЖНО

!!Акция!!

Alien_RageХит недели

RePack

MK11
pack

Забери бонус

RePack

jed

!!Акция!!

Alien_Rage

RePack

fifa19

RePack

Assassins Creed: Odyssey

RePack

NEED FOR SPEED™ PAYBACK

4 сезон

9 сезон

Бесстыжие 9 сезон

Все сериалы

все сериалы на PB.wtf

RePack

FAR CRY 5
  

Живое / Life (Даниэль Эспиноса) [2017, ужасы, фантастика, триллер, BDRip 720p от potroks] Dub [Лицензия] pb.wtf

Живое через торрент pb.wtf

Размер: 4.37 GB | Добавлен: 3 года 2 мес. назад | Торрент скачан:262 раза
Скачать  

04-08-2017 04:57 Живое Скачать торрент  

Живое / Life

Год выпуска: 2017
Страна: США / Columbia Pictures, Skydance Productions, Sony Pictures Entertainment (SPE)
Жанр: ужасы, фантастика, триллер
Продолжительность: 01:43:58
Перевод: Дубляж [Blu-ray EUR]
Субтитры: русские (полные + форс.), английские (Full + SDH + SDH-Colored)
Навигация по главам: есть

Режиссер: Даниэль Эспиноса
В ролях:

Хироюки Санада (Sho Murakami), Райан Рейнольдс (Rory Adams), Ребекка Фергюсон (Miranda North), Джейк Джилленхол (David Jordan), Ольга Дыховичная (Ekaterina Golovkina), Эрион Бакаре (Hugh Derry), Хесус Дель Орден (Student 2), Аллен МакЛин (Student 1), Лейла Грэйс Боствик-Ридделл (Student 3), Мари Гвелесиани (Student 4), Дэвид Мьюир (20 / 20 Anchor), Элизабет Варгас (20 / 20 Anchor)

Описание: Группа исследователей с международного космического корабля обнаруживает жизнь на Марсе. Они еще не подозревают, какие события повлечет за собой их открытие.



Качество: BDRip 720p
Формат: MKV
Видео: AVC, 1280x536 (2,40:1), 4740 kbps, 23,976 fps
Аудио#1: AC3 / 5.1 / 48 kHz / 640 kbps / 16 bit | RUS
Аудио#2: AC3 / 5.1 / 48 kHz / 640 kbps / 16 bit | ENG
Общее
Уникальный идентификатор : 233187163960014728652069417563616973806 (0xAF6E36D3F56C4828A382F690FC4013EE)
Полное имя : D:\Zhyvoe.2017.DUAL.BDRip.720p.-HELLYWOOD.mkv
Формат : Matroska
Версия формата : Version 4 / Version 2
Размер файла : 4,37 Гбайт
Продолжительность : 1 ч. 43 м.
Общий поток : 6022 Кбит/сек
Название фильма : Life (2017)
Дата кодирования : UTC 2017-08-03 17:42:26
Программа кодирования : mkvmerge v5.9.0 ('On The Loose') built on Dec 15 2012 16:39:58
Библиотека кодирования : libebml v1.3.0 + libmatroska v1.4.0

Видео
Идентификатор : 1
Формат : AVC
Формат/Информация : Advanced Video Codec
Профиль формата : High@L4.1
Параметр CABAC формата : Да
Параметр ReFrames формата : 9 кадров
Идентификатор кодека : V_MPEG4/ISO/AVC
Продолжительность : 1 ч. 43 м.
Битрейт : 4740 Кбит/сек
Ширина : 1280 пикселей
Высота : 536 пикселей
Соотношение сторон : 2,40:1
Режим частоты кадров : Постоянный
Частота кадров : 23,976 (24000/1001) кадра/сек
Цветовое пространство : YUV
Субдискретизация насыщенности : 4:2:0
Битовая глубина : 8 бит
Тип развёртки : Прогрессивная
Бит/(Пиксели*Кадры) : 0.288
Размер потока : 3,36 Гбайт (77%)
Заголовок : potroks
Библиотека кодирования : x264 core 152 r2851M ba24899
Настройки программы : cabac=1 / ref=9 / deblock=1:-3:-3 / analyse=0x3:0x132 / me=umh / subme=11 / psy=1 / psy_rd=0.99:0.04 / mixed_ref=1 / me_range=48 / chroma_me=1 / trellis=2 / 8x8dct=1 / cqm=0 / deadzone=21,11 / fast_pskip=0 / chroma_qp_offset=-3 / threads=9 / lookahead_threads=2 / sliced_threads=0 / nr=0 / decimate=0 / interlaced=0 / bluray_compat=0 / constrained_intra=0 / bframes=11 / b_pyramid=2 / b_adapt=2 / b_bias=0 / direct=3 / weightb=1 / open_gop=0 / weightp=2 / keyint=240 / keyint_min=23 / scenecut=40 / intra_refresh=0 / rc_lookahead=0 / rc=2pass / mbtree=0 / bitrate=4740 / ratetol=1.0 / qcomp=0.70 / qpmin=0 / qpmax=69 / qpstep=4 / cplxblur=20.0 / qblur=0.5 / vbv_maxrate=62500 / vbv_bufsize=44642 / nal_hrd=none / filler=0 / ip_ratio=1.40 / pb_ratio=1.30 / aq=1:0.80
Язык : English
Default : Да
Forced : Нет

Аудио #1
Идентификатор : 2
Формат : AC-3
Формат/Информация : Audio Coding 3
Параметр Endianness формата : Big
Идентификатор кодека : A_AC3
Продолжительность : 1 ч. 43 м.
Вид битрейта : Постоянный
Битрейт : 640 Кбит/сек
Каналы : 6 каналов
Расположение каналов : Front: L C R, Side: L R, LFE
Частота : 48,0 КГц
Частота кадров : 31,250 кадров/сек (1536 spf)
Битовая глубина : 16 бит
Метод сжатия : С потерями
Размер потока : 476 Мбайт (11%)
Заголовок : Dub | DD 5.1 @ 640 kbps - Blu-ray EUR
Язык : Russian
ServiceKind/String : Complete Main
Default : Да
Forced : Нет

Аудио #2
Идентификатор : 3
Формат : AC-3
Формат/Информация : Audio Coding 3
Параметр Endianness формата : Big
Идентификатор кодека : A_AC3
Продолжительность : 1 ч. 43 м.
Вид битрейта : Постоянный
Битрейт : 640 Кбит/сек
Каналы : 6 каналов
Расположение каналов : Front: L C R, Side: L R, LFE
Частота : 48,0 КГц
Частота кадров : 31,250 кадров/сек (1536 spf)
Битовая глубина : 16 бит
Метод сжатия : С потерями
Размер потока : 476 Мбайт (11%)
Заголовок : Original | DD 5.1 @ 640 kbps
Язык : English
ServiceKind/String : Complete Main
Default : Нет
Forced : Нет

Текст #1
Идентификатор : 4
Формат : UTF-8
Идентификатор кодека : S_TEXT/UTF8
Идентификатор кодека/Информация : UTF-8 Plain Text
Заголовок : Forced
Язык : Russian
Default : Да
Forced : Нет

Текст #2
Идентификатор : 5
Формат : UTF-8
Идентификатор кодека : S_TEXT/UTF8
Идентификатор кодека/Информация : UTF-8 Plain Text
Заголовок : iTunes
Язык : Russian
Default : Нет
Forced : Нет

Текст #3
Идентификатор : 6
Формат : UTF-8
Идентификатор кодека : S_TEXT/UTF8
Идентификатор кодека/Информация : UTF-8 Plain Text
Заголовок : Full
Язык : English
Default : Нет
Forced : Нет

Текст #4
Идентификатор : 7
Формат : UTF-8
Идентификатор кодека : S_TEXT/UTF8
Идентификатор кодека/Информация : UTF-8 Plain Text
Заголовок : SDH
Язык : English
Default : Нет
Forced : Нет

Текст #5
Идентификатор : 8
Формат : UTF-8
Идентификатор кодека : S_TEXT/UTF8
Идентификатор кодека/Информация : UTF-8 Plain Text
Заголовок : SDH-Colored
Язык : English
Default : Нет
Forced : Нет

Меню
00:00:00.000 : en:(01)00:00:00:000
00:09:32.863 : en:(02)00:09:32:863
00:13:13.083 : en:(03)00:13:13:083
00:15:36.894 : en:(04)00:15:36:894
00:19:35.340 : en:(05)00:19:35:340
00:24:57.454 : en:(06)00:24:57:454
00:34:36.991 : en:(07)00:34:36:991
00:40:45.109 : en:(08)00:40:45:109
00:43:59.303 : en:(09)00:43:59:303
00:52:21.805 : en:(10)00:52:21:805
00:58:33.927 : en:(11)00:58:33:927
01:06:37.785 : en:(12)01:06:37:785
01:11:43.257 : en:(13)01:11:43:257
01:17:50.874 : en:(14)01:17:50:874
01:22:39.621 : en:(15)01:22:39:621
01:28:34.309 : en:(16)01:28:34:309
pb.wtf



Скачать Живое через торрент http://i3.imageban.ru/out/2017/08/03/7f3984d77d84de2b4799b55379a2c264.png Скачать фильм Живое через торрент бесплантно в хорошем качестве Описание: Группа исследователей с международного космического корабля обнаруживает жизнь на Марсе. Они еще не подозревают, какие события ... 10 10 7
Info! Золотая раздача, скачанное не засчитывается.
Торрент: Зарегистрирован [2017-08-04 04:57] · скачан: 262 раз
Статус: √ проверено
Размер: 4.37 GB
Как cкачать? Как скачать Живое через торрент | qTorrent

% Раздел Тема Автор DL S | L
Порно фильмы с сюжетом [ 1.26 GB ] Любовь Которой Мы Живем / The Love We Live [2020 All Sex Couples WEB-DL] bashai5 Скачать
6 | 0
Классика зарубежного кино [ 8.63 GB ] Живём один раз / You Only Live Once [1937 нуар BDRip 1080p by msltel] MVO DVO msltel Скачать
1 | 0
Классика зарубежного кино [ 3.35 GB ] Живём один раз / You Only Live Once [1937 нуар BDRip 720p by msltel] MVO DVO msltel Скачать
1 | 0
Классика зарубежного кино [ 1.75 GB ] Живём один раз / You Only Live Once [1937 нуар BDRip by msltel] MVO DVO msltel Скачать
1 | 0
Фильмы [HD 720p, 1080p] (Хороший звук DUB, MVO) [ 14.37 GB ] Пожизненно! / Life [1999 BDRip 1080p] [MVO] + [DVO] + [AVO] killermax2013 Скачать
1 | 0
Фильмы (Blu-ray, BD-Remux, HDDVD) [ 20.95 GB ] Житие Брайана по Монти Пайтону / Жизнь Брайана по Монти Пайтон / Monty Python's Life of Brian [1979 BDRemux 1080p] 4x [AVO] + [VO] killermax2013 Скачать
1 | 0
Мультфильмы / Cartoons [ 806 MB ] Мы живем / The Lie We Live [2017 Gonzo Adult Animation Cumshot WEB-DL 720p Оригинальный] DJASFUL Скачать
1 | 0

28-11-2019 20:33  

Отключить всю рекламу на сайте

    Дорогой пользователь! Огромная просьба, поблагодарите релизера, оцените раздачу и оставьте свои комментарий, если Вы скачали Живое через торрент бесплатно! Внесите свою лепту в развитие PiratBit!
    Комментировать посты могут только пользователи прошедшие не сложную регистрацию
    Показать сообщения:    

    Живое через торрент
    Скачать бесплатно Живое
    Живое скачать торрент
    Живое смотреть онлайн
    Cкачать фильм Живое бесплатно
    Живое скачать торрент в хорошем качестве
    Живое смотреть онлайн бесплатно в хорошем качестве


    Вы не можете начинать темы
    Вы не можете отвечать на сообщения
    Вы не можете редактировать свои сообщения
    Вы не можете удалять свои сообщения
    Вы не можете голосовать в опросах
    Вы не можете прикреплять файлы к сообщениям
    Вы можете скачивать файлы