Ссылка на приватное зеркало нашего сайта всего за 1$. Внимание количество ограничено!!!

2 сезон

iTunes

1 сезон

1

2 сезон

2 сезон

iTunes

1 сезон

RePack

30

Новинка

ВАЖНО

ИГРА 18+

pack

RePack

MK11
pack

Забери бонус

RePack

jed

!!Акция!!

Alien_Rage

RePack

fifa19

RePack

Assassins Creed: Odyssey

RePack

NEED FOR SPEED™ PAYBACK

4 сезон

9 сезон

Бесстыжие 9 сезон

Все сериалы

все сериалы на PB.wtf

RePack

FAR CRY 5
  

Миднайт, Техас / Midnight, Texas / Сезон: 1 / Серии 1-10 из 10 (Дэвид Соломон, Майрзи Алмас, Грег Биман) [2017, фэнтези, драма, детектив, WEB-DL 1080p] [MVO] (LostFilm) pb.wtf

Миднайт, Техас через торрент pb.wtf

Размер: 33.56 GB | Добавлен: 1 год 11 мес. назад | Торрент скачан:21 раз
Скачать  

04-08-2017 08:51 Миднайт, Техас Скачать торрент  

Миднайт, Техас / Midnight, Texas
Год выпуска: 2017
Страна: США
Жанр: фэнтези, драма, детектив
Продолжительность: 00:43:00
Перевод: Профессиональный (многоголосый закадровый) LostFilm
Субтитры: английские

Режиссёр: Дэвид Соломон, Майрзи Алмас, Грег Биман / David Solomon, Mairzee Almas, Greg Beeman

В ролях: Франсуа Арно, Дилан Брюс, Ариэль Кеббел, Джейсон Льюис, Питер Менса, Сара Рамос, Юл Васкес, Джоэнн Кэмп, Париса Фитц-Хенли, Келли В. Лучио, Боб Джессер, Келли Стюарт, Джолин Бауман, Ив Козиловский, Шеннон Лоранс, Лора Каннингэм, Чаллен Кэйтс, Шон Дэннис, Роб Франко

Описание: События мистической драмы развернутся в маленьком техасском городке Миднайт, ставшем безопасным пристанищем для вампиров, ведьм, экстрасенсов, киллеров и всех прочих, кто отличается от обычных людей.

rating

Качество: WEB-DL 1080p
Контейнер: MKV
Видео: 1920x1080 (16:9), 23.976 fps, MPEG-4 AVC ~7500 kbps
Аудио 1: Russian, AC3, 48 kHz, 2 ch, 384 kbps
Аудио 2: English, E-AC3, 48 kHz, 6 ch, 640 kbps
Общее
Уникальный идентификатор : 231458241867219338587284874776285404824 (0xAE213C63342D541C8AC76FB2FA81DE98)
Полное имя : E:\Alexell\Midnight.Texas.(s01).WEBDL.1080p.LostFilm\Midnight.Texas.S01E01.WEB-DL.1080p.LostFilm.mkv
Формат : Matroska
Версия формата : Version 4 / Version 2
Размер файла : 2,61 Гбайт
Продолжительность : 42 м. 59 с.
Режим общего битрейта : Переменный
Общий поток : 8702 Кбит/сек
Название фильма : Midnight, Texas s01e01 @ NNM-Club
Дата кодирования : UTC 2017-07-27 23:57:55
Программа кодирования : mkvmerge v6.9.1 ('Blue Panther') 64bit built on Apr 18 2014 18:23:38
Библиотека кодирования : libebml v1.3.0 + libmatroska v1.4.1

Видео
Идентификатор : 1
Формат : AVC
Формат/Информация : Advanced Video Codec
Профиль формата : High@L4
Настройки формата : CABAC / 4 Ref Frames
Параметр CABAC формата : Да
Параметр RefFrames формата : 4 кадра
Идентификатор кодека : V_MPEG4/ISO/AVC
Продолжительность : 42 м. 59 с.
Вид битрейта : Переменный
Битрейт : 7504 Кбит/сек
Максимальный битрейт : 15,0 Мбит/сек
Ширина : 1920 пикселей
Высота : 1080 пикселей
Соотношение сторон : 16:9
Режим частоты кадров : Постоянный
Частота кадров : 23,976 (24000/1001) кадра/сек
Цветовое пространство : YUV
Субдискретизация насыщенности : 4:2:0
Битовая глубина : 8 бит
Тип развёртки : Прогрессивная
Бит/(Пиксели*Кадры) : 0.151
Размер потока : 2,25 Гбайт (86%)
Язык : English
Default : Да
Forced : Нет
Цветовой диапазон : Limited
Основные цвета : BT.709
Характеристики трансфера : BT.709
Коэффициенты матрицы : BT.709

Аудио #1
Идентификатор : 2
Формат : AC-3
Формат/Информация : Audio Coding 3
Параметр Endianness формата : Big
Идентификатор кодека : A_AC3
Продолжительность : 42 м. 59 с.
Вид битрейта : Постоянный
Битрейт : 384 Кбит/сек
Каналы : 2 канала
Расположение каналов : Front: L R
Частота : 48,0 КГц
Частота кадров : 31,250 кадров/сек (1536 SPF)
Битовая глубина : 16 бит
Метод сжатия : С потерями
Размер потока : 118 Мбайт (4%)
Язык : Russian
ServiceKind/String : Complete Main
Default : Да
Forced : Нет

Аудио #2
Идентификатор : 3
Формат : E-AC-3
Формат/Информация : Enhanced Audio Coding 3
Параметр Endianness формата : Big
Идентификатор кодека : A_EAC3
Продолжительность : 42 м. 59 с.
Вид битрейта : Постоянный
Битрейт : 640 Кбит/сек
Каналы : 6 каналов
Расположение каналов : Front: L C R, Side: L R, LFE
Частота : 48,0 КГц
Частота кадров : 187,500 кадров/сек (256 SPF)
Метод сжатия : С потерями
Размер потока : 197 Мбайт (7%)
Язык : English
ServiceKind/String : Complete Main
Default : Нет
Forced : Нет

Текст
Идентификатор : 4
Формат : UTF-8
Идентификатор кодека : S_TEXT/UTF8
Идентификатор кодека/Информация : UTF-8 Plain Text
Язык : English
Default : Нет
Forced : Нет
скриншот   скриншот   скриншот   скриншот  
pb.wtf



Скачать Миднайт, Техас через торрент http://i94.fastpic.ru/big/2017/0803/de/8738e6d8b04d0c01457ee42ef5a8c8de.jpg Скачать фильм Миднайт, Техас через торрент бесплантно в хорошем качестве Описание: События мистической драмы развернутся в маленьком техасском городке Миднайт, ставшем безопасным пристанищем для вампиров, ведьм, ... 10 10 5
Info! Золотая раздача, скачанное не засчитывается.
Торрент: Зарегистрирован [2018-12-01 09:56] · скачан: 21 раз
Статус: √ проверено
Размер: 33.56 GB
Как cкачать? Как скачать Миднайт, Техас через торрент | qTorrent

% Раздел Тема Автор DL S | L
Зарубежные сериалы [ 19.02 GB ] Миднайт Техас / Midnight Texas / Сезон: 2 / Серии 1-9 из 9 [2018 WEB-DL 1080p] [MVO] killermax2013 Скачать
1 | 0
Зарубежные сериалы [ 7.66 GB ] Миднайт Техас / Midnight Texas / Сезон: 1 / Серии 1-10 из 10 [2017 WEB-DLRip-AVC] MVO [BaibaKo] GEKADOL Скачать
1 | 0
Зарубежные сериалы [ 4.52 GB ] Миднайт Техас / Midnight Texas / Сезон: 1 / Серии 1-10 из 10 [2017 WEB-DLRip] [MVO] killermax2013 Скачать
1 | 0
Зарубежные сериалы [ 17.85 GB ] Миднайт Техас / Midnight Texas / Сезон: 1 / Серии 1-10 из 10 [2017 WEB-DLRip 1080p] [MVO] killermax2013 Скачать
1 | 0
Зарубежные сериалы [ 33.56 GB ] Миднайт Техас / Midnight Texas / Сезон: 1 / Серии 1-10 из 10 [2017 WEB-DL 1080p] [MVO] killermax2013 Скачать
1 | 0


Последний раз редактировалось: killermax2013 (2018-12-01 09:56), всего редактировалось 3 раз(а)

28-11-2019 20:33  

Отключить всю рекламу на сайте

04-08-2017 17:03 Миднайт, Техас Скачать торрент  

и как сериал ?pb.wtf



04-08-2017 17:30 Миднайт, Техас Скачать торрент  

marik31 писал(а):

и как сериал ?

отзывы хорошие, сам еще не смотрелpb.wtf



04-08-2017 22:01 Миднайт, Техас Скачать торрент  

Мне понравился. Новый, живой взгляд. И главный герой интересный. Актер хороший.pb.wtf



13-08-2017 13:11 Миднайт, Техас Скачать торрент  

+2pb.wtf



14-08-2017 16:25 Миднайт, Техас Скачать торрент  

+3pb.wtf



15-08-2017 18:50 Миднайт, Техас Скачать торрент  

Начало ничего,но дальше как то все тухлее....pb.wtf



    Дорогой пользователь! Огромная просьба, поблагодарите релизера, оцените раздачу и оставьте свои комментарий, если Вы скачали Миднайт, Техас через торрент бесплатно! Внесите свою лепту в развитие PiratBit!
    Комментировать посты могут только пользователи прошедшие не сложную регистрацию
    Показать сообщения:    

    Миднайт, Техас через торрент
    Скачать бесплатно Миднайт, Техас
    Миднайт, Техас скачать торрент
    Миднайт, Техас смотреть онлайн
    Cкачать фильм Миднайт, Техас бесплатно
    Миднайт, Техас скачать торрент в хорошем качестве
    Миднайт, Техас смотреть онлайн бесплатно в хорошем качестве


    Вы не можете начинать темы
    Вы не можете отвечать на сообщения
    Вы не можете редактировать свои сообщения
    Вы не можете удалять свои сообщения
    Вы не можете голосовать в опросах
    Вы не можете прикреплять файлы к сообщениям
    Вы можете скачивать файлы