новый адрес
Мега распродажа FORZA HORIZON 4 ULTIMATE+ВСЕ DLC+ОНЛАЙН всего за 499р. 349 руб. (супер цена). Внимание количество ограничено!!!

iTunes

1+1

iTunes

мы

iTunes

1

iTunes

Чернобыль

iTunes

Ральф против интернета

Лицензия

ПШазам

Лицензия

Оно 2

Лицензия

30
pack

ВАЖНО

!!Акция!!

Alien_RageХит недели

RePack

Resident Evil 21

ИГРА 18+

pack

RePack

jed

!!Акция!!

Alien_Rage

RePack

fifa19

RePack

Assassins Creed: Odyssey

RePack

NEED FOR SPEED™ PAYBACK

3 сезон

9 сезон

Бесстыжие 9 сезон

Все сериалы

все сериалы на PB.wtf

RePack

FAR CRY 5
Ребята, катастрофически не хватает 1900р. для оплаты серверов за Октябрь (всвязи с блокировками трафик упал в 3 раза), 1-2р., выручайте.
  

Идиот (Иван Пырьев) [1958, СССР, драма, DVDRip-AVC от AVP Studio] pb.wtf

Идиот через торрент pb.wtf

Размер: 2.18 GB | Добавлен: 2 года 3 мес. назад | Торрент скачан:44 раза
Скачать  

04-08-2017 10:02 Идиот Скачать торрент  

Идиот
Страна: СССР
Производство: Мосфильм

Жанр: драма
Год выпуска: 1958
Продолжительность: 01:55:59

Перевод: Не требуется
Cубтитры: нет
Оригинальная аудиодорожка: русский

Режиссер: Иван Пырьев

В ролях:
Юрий Яковлев, Юлия Борисова, Никита Подгорный, Леонид Пархоменко, Раиса Максимова, Вера Пашенная, Николай Пажитнов, Клавдия Половикова, Иван Любезнов, Людмила Иванова (II), Владимир Муравьёв, Сергей Мартинсон, Павел Стрелин, Григорий Шпигель...
Об актёрах подробней

Описание:
Фильм по первой части одноименного романа Ф.М.Достоевского ("Настасья Филипповна").
Князь Мышкин (Юрий Яковлев) возвращается в Россию из Швейцарии, где он проходил лечение в психиатрической клинике. В поезде, по дороге в Петербург, князь знакомится с Парфёном Рогожиным, который рассказывает ему о своей страстной любви к Настасье Филипповне (Юлия Борисова), бывшей содержанке миллионера Тоцкого. В Петербурге князь попадает в дом своей дальней родственницы – генеральши Еланчиной, знакомится с её мужем, их дочерьми, а также секретарём генерала Ганей Иволгиным. Случайно увиденный на столе у генерала портрет Настасьи Филипповны производит на князя большое впечатление…

Источник: DVD9 R5
Качество видео: DVDRip-AVC
Формат видео: MKV

Видео: 712->741x556 (4:3), 25 fps, H264 ~ 2239 kbps avg, 0.226 bit/pixel
Аудио: 48 kHz, Dolby Digital AC3 2.0, 192 kbps

Раздача от:
Общее
Полное имя : Idiot.1958.DVDRip-AVC_[New-team]_by_AVP_Studio.mkv
Формат : Matroska
Версия формата : Version 2
Размер файла : 2,18 Гбайт
Продолжительность : 1 ч. 55 м.
Общий поток : 2689 Кбит/сек
Дата кодирования : UTC 2017-08-03 21:36:09
Программа кодирования : mkvmerge v6.1.0 ('Old Devil') built on Mar 4 2013 09:10:42
Библиотека кодирования : libebml v1.3.0 + libmatroska v1.4.0

Видео
Идентификатор : 1
Формат : AVC
Формат/Информация : Advanced Video Codec
Профиль формата : High@L4.1
Параметр CABAC формата : Да
Параметр RefFrames формата : 10 кадров
Идентификатор кодека : V_MPEG4/ISO/AVC
Продолжительность : 1 ч. 55 м.
Битрейт : 2239 Кбит/сек
Ширина : 712 пикселей
Высота : 556 пикселей
Соотношение сторон : 4:3
Режим частоты кадров : Постоянный
Частота кадров : 25,000 кадров/сек
Цветовое пространство : YUV
Субдискретизация насыщенности : 4:2:0
Битовая глубина : 8 бит
Тип развёртки : Прогрессивная
Бит/(Пиксели*Кадры) : 0.226
Размер потока : 1,77 Гбайт (81%)
Библиотека кодирования : x264 core 130 r2273 b3065e6
Настройки программы : cabac=1 / ref=10 / deblock=1:-2:-1 / analyse=0x3:0x113 / me=umh / subme=10 / psy=1 / psy_rd=1.00:0.00 / mixed_ref=1 / me_range=32 / chroma_me=1 / trellis=2 / 8x8dct=1 / cqm=0 / deadzone=21,11 / fast_pskip=1 / chroma_qp_offset=-2 / threads=6 / lookahead_threads=1 / sliced_threads=0 / nr=0 / decimate=0 / interlaced=0 / bluray_compat=0 / constrained_intra=0 / bframes=8 / b_pyramid=2 / b_adapt=2 / b_bias=0 / direct=3 / weightb=1 / open_gop=0 / weightp=2 / keyint=250 / keyint_min=25 / scenecut=40 / intra_refresh=0 / rc=2pass / mbtree=0 / bitrate=2239 / ratetol=1.0 / qcomp=0.60 / qpmin=0 / qpmax=69 / qpstep=4 / cplxblur=20.0 / qblur=0.5 / ip_ratio=1.40 / pb_ratio=1.30 / aq=1:1.00
Default : Да
Forced : Нет

Аудио
Идентификатор : 2
Формат : AC-3
Формат/Информация : Audio Coding 3
Параметр Endianness формата : Big
Идентификатор кодека : A_AC3
Продолжительность : 1 ч. 55 м.
Вид битрейта : Постоянный
Битрейт : 448 Кбит/сек
Каналы : 6 каналов
Расположение каналов : Front: L C R, Side: L R, LFE
Частота : 48,0 КГц
Частота кадров : 31,250 кадров/сек (1536 SPF)
Битовая глубина : 16 бит
Метод сжатия : С потерями
Размер потока : 372 Мбайт (17%)
Default : Да
Forced : Нет
pb.wtf



Скачать Идиот через торрент http://s019.radikal.ru/i642/1708/cf/da2c480e2b98.png Скачать фильм Идиот через торрент бесплантно в хорошем качестве Описание:Фильм по первой части одноименного романа Ф.М.Достоевского ("Настасья Филипповна").Князь Мышкин (Юрий Яковлев) возвращается в ... 10 10 1
Info! Золотая раздача, скачанное не засчитывается.
Торрент: Зарегистрирован [2017-08-04 10:02] · скачан: 44 раз
Статус: √ проверено
Размер: 2.18 GB
Как cкачать? Как скачать Идиот через торрент | qTorrent

% Раздел Тема Автор DL S | L
Психология [ 547 MB ] Курпатов Андрей - Чертоги разума. Убей в себе идиота! [Федоров Александр 2019 128 kbps MP3] bober100 Скачать
1 | 0
Порно фильмы без сюжета [ 2.03 GB ] Оттрахай Меня Идиот 5 / Fuck Me Silly 5 [2019 All Sex WEB-DL] bashai5 Скачать
1 | 0
T Фильмы 2018 [DVDrip, WEB-DLRip, HDrip] (DUB, MVO) [ 1.61 GB ] Долгая идиотская дорога / The Long Dumb Road [2018 BDRip-AVC] MVO [HDRezka Studio] bober100 Скачать
1 | 0
Индийское кино [ 2.05 GB ] 3 идиота / 3 idiots [2009 HDRip] dominikanets Скачать
1 | 0
Гонзо [ 1.63 GB ] Трахни Меня Идиот vol. 2 / Fuck Me Silly vol. 2 [2017 Gonzo DVDRip Оригинальный] DJASFUL Скачать
1 | 0
Гонзо [ 1.8 GB ] Оттрахай Меня Идиот 2 / Fuck Me Silly 2 [2017 All Sex Oral Gonzo Facial Threesome Big Tits WEB-DLRip 480p] Split Scenes sheker187 Скачать
1 | 0
Кино СССР [ 1.09 GB ] Идиот [1958 СССР DVDRip от AVP Studio] AVP Studio Скачать
1 | 0


Последний раз редактировалось: AVP Studio (2017-08-05 07:54), всего редактировалось 1 раз


>> Регистрируемся здесь <<






Отзывы и комментарии о схеме читаем и пишем здесь: ---> Отзывы и комментарии о схеме

Новые благодарочки в телеграм довольных пользователей:
скриншот   скриншот   скриншот   скриншот   скриншот

04-08-2017 13:15 Идиот Скачать торрент  

Поправьте описание:Фильм рассказывает о возвращении в Россию после лечения князя Льва Николаевича Мышкина, его появлении в доме Епанчиных и знакомстве с необыкновенной женщиной Настасьей Филипповной, чей облик с первой секунды поражает князя.pb.wtf



04-08-2017 13:50 Идиот Скачать торрент  

и правда-57 года фильм с названием идиот о ЛЕНИНЕ это идиотизм описания.во первых его бы никто никогда не увидел-а создателей бы сразу расстрелялиpb.wtf



05-08-2017 07:55 Идиот Скачать торрент  

Прошу прощения за ошибку в описании))pb.wtf



    Дорогой пользователь! Огромная просьба, поблагодарите релизера, оцените раздачу и оставьте свои комментарий, если Вы скачали Идиот через торрент бесплатно! Внесите свою лепту в развитие PiratBit!
    Комментировать посты могут только пользователи прошедшие не сложную регистрацию
    Показать сообщения:    

    Идиот через торрент
    Скачать бесплатно Идиот
    Идиот скачать торрент
    Идиот смотреть онлайн
    Cкачать фильм Идиот бесплатно
    Идиот скачать торрент в хорошем качестве
    Идиот смотреть онлайн бесплатно в хорошем качестве


    Вы не можете начинать темы
    Вы не можете отвечать на сообщения
    Вы не можете редактировать свои сообщения
    Вы не можете удалять свои сообщения
    Вы не можете голосовать в опросах
    Вы не можете прикреплять файлы к сообщениям
    Вы можете скачивать файлы