Ссылка на приватное зеркало нашего сайта всего за 1$. Внимание количество ограничено!!!

2 сезон

iTunes

1 сезон

1

2 сезон

2 сезон

iTunes

1 сезон

RePack

30

Ultimate

ВАЖНО

ИГРА 18+

pack

RePack

MK11
pack

Забери бонус

RePack

jed

!!Акция!!

Alien_Rage

RePack

fifa19

RePack

Assassins Creed: Odyssey

RePack

NEED FOR SPEED™ PAYBACK

4 сезон

9 сезон

Бесстыжие 9 сезон

Все сериалы

все сериалы на PB.wtf

RePack

FAR CRY 5
  

Килджой / Киллджойс / Кайфоломы / Killjoys / Сезон 2 / Серии 1-10 из 10 (Крис Грисмер, Паоло Барзмен, Энди Микита) [2016, Фантастика, WEB-DLRip] MVO [BaibaKo] pb.wtf

Килджой через торрент pb.wtf

Размер: 5.69 GB | Добавлен: 3 года 3 мес. назад | Торрент скачан:86 раз
Скачать  

04-08-2017 18:26 Килджой Скачать торрент  

Килджой / Киллджойс / Кайфоломы / Killjoys
Год выпуска: 2016
Страна: США
Жанр: Фантастика
Продолжительность: 10 x ~ 00:43:00
Перевод: Профессиональный многоголосый
Субтитры: отсутствуют

Режиссер: Крис Грисмер, Паоло Барзмен, Энди Микита

rating

В ролях:

Том Эллисон, Тамсен МакДонаф, Аарон Эшмор, Роб Стюарт, Ханна Джон-Кэймен, Люк МакФарлейн, Сара Пауэр, Нора МакЛеллан, Морган Келли, Данка Щепанович, Фрэнк Мур

Описание:

Обитатели планеты Креш превратили спутники в свои колонии, организовав межпланетное сообщество. За соблюдением закона на всех планетах следят служители правопорядка — Датч и Джон. Несмотря на то, что любое нарушение строго наказывается, Датч готова преступить закон ради достижения цели, а вот её напарник, Джон, наоборот, считает, что насилие — зло и нужно стараться уладить любой конфликт без применения силы. Отношения между главными героями ещё больше осложняются, когда членом команды становится брат Джона, Дэйвин.

Качество: WEB-DLRip
Формат: AVI
Видео кодек: XviD
Аудио кодек: MP3

Видео: 720x400 (1.80:1), 23.976 fps, XviD build 50 ~1500 kbps avg, 0.28 bit/pixel
Аудио#1: Rus: 48 kHz, MPEG Layer 3, 2 ch, ~192.00 kbps avg
Аудио#2: Eng: 48 kHz, MPEG Layer 3, 2 ch, ~192.00 kbps avg
скриншот   скриншот   скриншот   скриншот  

Общее
Полное имя : C:\Killjoys (Season 02) BaibaKo\Killjoys.s02e01.WEB-DLRip.XviD.Rus.Eng.BaibaKo.tv.avi
Формат : AVI
Формат/Информация : Audio Video Interleave
Размер файла : 575 Мбайт
Продолжительность : 42 м. 31 с.
Общий поток : 1891 Кбит/сек

Видео
Идентификатор : 0
Формат : MPEG-4 Visual
Профиль формата : Advanced Simple@L5
Параметр BVOP формата : 2
Параметр QPel формата : Нет
Параметр GMC формата : Без точки перехода
Параметр матрицы формата : Default (H.263)
Идентификатор кодека : XVID
Идентификатор кодека/Подсказка : XviD
Продолжительность : 42 м. 31 с.
Битрейт : 1500 Кбит/сек
Ширина : 720 пикселей
Высота : 400 пикселей
Соотношение сторон : 16:9
Частота кадров : 23,976 кадра/сек
Цветовое пространство : YUV
Субдискретизация насыщенности : 4:2:0
Битовая глубина : 8 бит
Тип развёртки : Прогрессивная
Метод сжатия : С потерями
Бит/(Пиксели*Кадры) : 0.217
Размер потока : 456 Мбайт (79%)
Библиотека кодирования : XviD 67

Аудио #1
Идентификатор : 1
Формат : MPEG Audio
Версия формата : Version 1
Профиль формата : Layer 3
Режим : Joint stereo
Расширение режима : MS Stereo
Идентификатор кодека : 55
Идентификатор кодека/Подсказка : MP3
Продолжительность : 42 м. 31 с.
Вид битрейта : Постоянный
Битрейт : 192 Кбит/сек
Каналы : 2 канала
Частота : 48,0 КГц
Метод сжатия : С потерями
Размер потока : 58,4 Мбайт (10%)
Выравнивание : Соединение по промежуткам
Продолжительность промежутка : 167 мс. (4,00 видеокадра)
Время предзагрузки промежутка : 216 мс.
Заголовок : Killjoys.s02e01.HD1080p.WEB-DL.Rus.Eng.BaibaKo.tv - [0] Russian_audio
Библиотека кодирования : LAME3.99r
Настройки программы : -m j -V 4 -q 2 -lowpass 18.6 -b 192

Аудио #2
Идентификатор : 2
Формат : MPEG Audio
Версия формата : Version 1
Профиль формата : Layer 3
Режим : Joint stereo
Расширение режима : MS Stereo
Идентификатор кодека : 55
Идентификатор кодека/Подсказка : MP3
Продолжительность : 42 м. 31 с.
Вид битрейта : Постоянный
Битрейт : 192 Кбит/сек
Каналы : 2 канала
Частота : 48,0 КГц
Метод сжатия : С потерями
Размер потока : 58,4 Мбайт (10%)
Выравнивание : Соединение по промежуткам
Продолжительность промежутка : 167 мс. (4,00 видеокадра)
Время предзагрузки промежутка : 216 мс.
Заголовок : Killjoys.s02e01.HD1080p.WEB-DL.Rus.Eng.BaibaKo.tv - [1] English_audio
Библиотека кодирования : LAME3.99r
Настройки программы : -m j -V 4 -q 2 -lowpass 18.6 -b 192

pb.wtf



Скачать Килджой через торрент http://s019.radikal.ru/i616/1708/3b/2f5b112e3193.png Скачать фильм Килджой через торрент бесплантно в хорошем качестве Описание: Обитатели планеты Креш превратили спутники в свои колонии, организовав межпланетное сообщество. За соблюдением закона на всех ... 9.7 10 6
Торрент: Зарегистрирован [2017-08-04 18:26] · скачан: 86 раз
Статус: √ проверено
Размер: 5.69 GB
Как cкачать? Как скачать Килджой через торрент | qTorrent

28-11-2019 20:33  

Отключить всю рекламу на сайте

26-08-2018 19:57 Килджой Скачать торрент  

bober100, доброго времени суток 2 килджойс не кажетpb.wtf



    Дорогой пользователь! Огромная просьба, поблагодарите релизера, оцените раздачу и оставьте свои комментарий, если Вы скачали Килджой через торрент бесплатно! Внесите свою лепту в развитие PiratBit!
    Комментировать посты могут только пользователи прошедшие не сложную регистрацию
    Показать сообщения:    

    Килджой через торрент
    Скачать бесплатно Килджой
    Килджой скачать торрент
    Килджой смотреть онлайн
    Cкачать фильм Килджой бесплатно
    Килджой скачать торрент в хорошем качестве
    Килджой смотреть онлайн бесплатно в хорошем качестве


    Вы не можете начинать темы
    Вы не можете отвечать на сообщения
    Вы не можете редактировать свои сообщения
    Вы не можете удалять свои сообщения
    Вы не можете голосовать в опросах
    Вы не можете прикреплять файлы к сообщениям
    Вы можете скачивать файлы