2 сезон

iTunes

MVO

1

2 сезон

iTunes

iTunes

1 сезон

RePack

30

Ultimate

ВАЖНО

ИГРА 18+

pack

RePack

MK11
pack

Легкие деньги

RePack

jed

RePack

fifa19

RePack

RDR2

RePack

NEED FOR SPEED™ PAYBACK

4 сезон

9 сезон

Бесстыжие 9 сезон

Все сериалы

все сериалы на PB.wtf

RePack

FAR CRY 5

Anonymous, доброй ночи, мы не успеваем собрать деньги на оплату серверов за декабрь и январь, помогите нам пожалуйста в это трудное время. В качестве благодарности мы отключим Вам всю рекламу на сайте (укажите свой ник в строку Ваше имя)!

×
  
Magnet ссылка

Нападение на 13-й участок / Assault on Precinct 13 (Руперт Сандерс) [2005, боевик, драма, криминал, BDRip 720p 60 fps от еnvy / NNNB] DUB pb.wtf

Нападение на 13-й участок через торрент pb.wtf

Раздают: 5 [ 0 KB/s ]
Размер: 6.14 GB | Добавлен: 3 года 5 мес. назад | Торрент скачан:352 раза
Скачать  

05-08-2017 07:35 Нападение на 13-й участок Скачать торрент  

Информация о фильме
Русское название: Нападение на 13-й участок
Оригинальное название: Assault on Precinct 13
Год выхода: 2005
Жанр: боевик, драма, криминал
Режиссер: Жан-Франсуа Рише
Выпущено: США, Франция
Продолжительность: 01:48:49
Перевод: Дублированный
В ролях: Итан Хоук, Лоренс Фишбёрн, Гэбриел Бирн, Мария Белло, Дреа де Маттео, Джон Легуизамо, Брайан Деннехи, Джа Рул, Карри Грэм, Аиша Хиндс
Описание:
Считанные часы остаются до закрытия 13-го полицейского участка. Но пока его сотрудники во главе с сержантом Роуником готовятся к встрече Нового года, снежная буря разворачивает к ним спецавтобус с преступниками. В их числе и только что захваченный гангстер Мэрион Бишоп.
Ничто, казалось бы, не позволит отвлечь полицейских от праздника: пока вооруженные люди в масках не нападают на участок. И блюстители закона вынуждены объединиться с преступниками, чтобы выжить этой ночью!
Файл
Качество: BDRip 720p (исходник Blu-ray Disc)
Контейнер: MKV (расширение файла)
Видео: 1280x534, 7020 Кбит/сек, 60.000 кадр/сек, AVC, x264, High@L4.1, 2.40:1, 0.171 Бит/[Пиксели*Кадры]
Аудио 1: AC-3, 448 Кбит/сек, 6 канала(ов), 48,0 КГц - Дублированный / Русский
Аудио 2: AC-3, 448 Кбит/сек, 6 канала(ов), 48,0 КГц - Оригинал / Английский
Субтитры: Русские | Полные, Английские | Полные
Форсированные субтитры: Нет
Чаптеры (Главы): Есть


Автор Рипа: Сообщество: мы в VK
скриншот   скриншот   скриншот  
Format : Matroska
Format version : Version 2
File size : 6.14 GiB
Duration : 1 h 48 min
Overall bit rate : 8 077 kb/s
Movie name : Assault on Precinct 13.(2005).BDRip.720p.[envy].[60fps]
Encoded date : UTC 2017-08-04 21:02:28
Writing application : mkvmerge v5.8.0 ('No Sleep / Pillow') built on Sep 2 2012 15:37:04
Writing library : libebml v1.2.3 + libmatroska v1.3.0

Video
ID : 1
Format : AVC
Format/Info : Advanced Video Codec
Format profile : High@L4.1
Format settings, CABAC : Yes
Format settings, RefFrames : 9 frames
Codec ID : V_MPEG4/ISO/AVC
Duration : 1 h 48 min
Bit rate : 7 020 kb/s
Width : 1 280 pixels
Height : 534 pixels
Display aspect ratio : 2.40:1
Frame rate mode : Constant
Frame rate : 60.000 FPS
Color space : YUV
Chroma subsampling : 4:2:0
Bit depth : 8 bits
Scan type : Progressive
Bits/(Pixel*Frame) : 0.171
Stream size : 5.34 GiB (87%)
Title : Assault on Precinct 13.(2005).BDRip.720p.[envy].[60fps]
Writing library : x264 core 146 r2538 121396c
Encoding settings : cabac=1 / ref=9 / deblock=1:0:0 / analyse=0x3:0x113 / me=umh / subme=10 / psy=1 / psy_rd=1.00:0.00 / mixed_ref=1 / me_range=24 / chroma_me=1 / trellis=2 / 8x8dct=1 / cqm=0 / deadzone=21,11 / fast_pskip=0 / chroma_qp_offset=-2 / threads=12 / lookahead_threads=1 / sliced_threads=0 / nr=0 / decimate=1 / interlaced=0 / bluray_compat=0 / constrained_intra=0 / bframes=5 / b_pyramid=2 / b_adapt=2 / b_bias=0 / direct=3 / weightb=1 / open_gop=0 / weightp=2 / keyint=250 / keyint_min=25 / scenecut=40 / intra_refresh=0 / rc=crf / mbtree=0 / crf=16.8 / qcomp=0.60 / qpmin=0 / qpmax=69 / qpstep=4 / ip_ratio=1.40 / pb_ratio=1.30 / aq=3:1.00
Language : English
Default : Yes
Forced : No

Audio #1
ID : 2
Format : AC-3
Format/Info : Audio Coding 3
Format settings, Endianness : Big
Codec ID : A_AC3
Duration : 1 h 48 min
Bit rate mode : Constant
Bit rate : 448 kb/s
Channel(s) : 6 channels
Channel positions : Front: L C R, Side: L R, LFE
Sampling rate : 48.0 kHz
Frame rate : 31.250 FPS (1536 SPF)
Bit depth : 16 bits
Compression mode : Lossy
Stream size : 349 MiB (6%)
Title : Dub
Language : Russian
Service kind : Complete Main
Default : No
Forced : No

Audio #2
ID : 3
Format : AC-3
Format/Info : Audio Coding 3
Format settings, Endianness : Big
Codec ID : A_AC3
Duration : 1 h 48 min
Bit rate mode : Constant
Bit rate : 448 kb/s
Channel(s) : 6 channels
Channel positions : Front: L C R, Side: L R, LFE
Sampling rate : 48.0 kHz
Frame rate : 31.250 FPS (1536 SPF)
Bit depth : 16 bits
Compression mode : Lossy
Stream size : 349 MiB (6%)
Title : Eng
Language : English
Service kind : Complete Main
Default : No
Forced : No

Text #1
ID : 4
Format : UTF-8
Codec ID : S_TEXT/UTF8
Codec ID/Info : UTF-8 Plain Text
Title : Rus full
Language : Russian
Default : No
Forced : No

Text #2
ID : 5
Format : UTF-8
Codec ID : S_TEXT/UTF8
Codec ID/Info : UTF-8 Plain Text
Title : Eng full
Language : English
Default : No
Forced : No

Menu
00:00:00.000 : en:
00:05:05.012 : en:
00:09:59.682 : en:
00:14:22.487 : en:
00:20:38.904 : en:
00:24:34.848 : en:
00:29:50.080 : en:
00:34:08.420 : en:
00:41:44.710 : en:
00:48:31.449 : en:
00:53:46.515 : en:
00:58:50.152 : en:
01:04:16.770 : en:
01:09:58.861 : en:
01:17:05.787 : en:
01:21:02.357 : en:
01:24:57.801 : en:
01:29:25.277 : en:
01:34:39.506 : en:
01:42:32.729 : en:
Прежде чем скачивать фильм полностью, скачайте "сэмпл", и проверьте будет ли воспроизводится видео на вашем устройстве!

Q: Присутствуют ли артефакты на изображении?
A: Да, есть, и будут, какие настройки скритпа не вписывай они будут постоянно! Так как это дорисованные кадры из исходных + Видео ряд обработан фильтром "Sharp"

Q: У меня не запускается видео на компьютере?
A: Обновите кодеки. (попробуйте другие видео проигрыватели)

Q: У меня идет рассинхрон звука и видео?
A: Проблема в мощности компьютера. (возможно также нужно обновить кодеки)

Q: Что нужно для воспроизведения данного видео.
A: Что рекомендуется для воспроизведения мной:
Процессор: 4х ядерный
Видео карта: минимум 512Мб. И желательно включить обработку изображения с помощью видео карты. (Деинтерлейсинг, подавление блочности и т.д.)
ОЗУ: 2-4Гб

Проигрыватели.
MPC-HC (Media Player Classic - Home Cinema)
The KMPlayer (Korean Multimedia Player) (оптимальный вариант)
Mirillis Splash PRO (Если что то проигрыватель сам может преобразовывать видео вплоть до частоты кадров монитора. Или тех же 60fps.)
^Прежде чем отписывать комментарии по качеству, прочитайте спойлер!

pb.wtf



Скачать Нападение на 13-й участок через торрент http://img12.lostpic.net/2017/08/05/60db5bc9dc30687d2322a9dcd46824e9.png Скачать фильм Нападение на 13-й участок через торрент бесплантно в хорошем качестве Описание:Считанные часы остаются до закрытия 13-го полицейского участка. Но пока его сотрудники во главе с сержантом Роуником готовятся к ... 9.9 10 7
Info! Золотая раздача, скачанное не засчитывается.
Торрент: Зарегистрирован [2017-08-05 07:35] · скачан: 352 раз
Статус: √ проверено
Размер: 6.14 GB
Как cкачать? Как скачать Нападение на 13-й участок через торрент | UTorrent

% Раздел Тема Автор DL S | L
Фильмы 2001-2005 [ 2.18 GB ] Нападение на 13-й участок / Assault on Precinct 13 [2004 HDRip DUB + Оригинал] lev1244v Скачать
1 | 0

28-11-2019 20:33  

Отключить всю рекламу на сайте

05-08-2017 09:27 Нападение на 13-й участок Скачать торрент  

Норм фильм.pb.wtf



05-08-2017 10:42 Нападение на 13-й участок Скачать торрент  

Гляну. Спасибо за 60 fps.pb.wtf



06-08-2017 07:42 Нападение на 13-й участок Скачать торрент  

фильм гуд!pb.wtf



06-08-2017 17:34 Нападение на 13-й участок Скачать торрент  

хороший фильм!!!pb.wtf



09-08-2017 16:35 Нападение на 13-й участок Скачать торрент  

pb.wtf



    Дорогой пользователь! Огромная просьба, поблагодарите релизера, оцените раздачу и оставьте свои комментарий, если Вы скачали Нападение на 13-й участок через торрент бесплатно! Внесите свою лепту в развитие PiratBit!
    Комментировать посты могут только пользователи прошедшие не сложную регистрацию
    Показать сообщения:    

    Нападение на 13-й участок через торрент
    Скачать бесплатно Нападение на 13-й участок
    Нападение на 13-й участок скачать торрент
    Нападение на 13-й участок смотреть онлайн
    Cкачать фильм Нападение на 13-й участок бесплатно
    Нападение на 13-й участок скачать торрент в хорошем качестве
    Нападение на 13-й участок смотреть онлайн бесплатно в хорошем качестве


    Вы не можете начинать темы
    Вы не можете отвечать на сообщения
    Вы не можете редактировать свои сообщения
    Вы не можете удалять свои сообщения
    Вы не можете голосовать в опросах
    Вы не можете прикреплять файлы к сообщениям
    Вы можете скачивать файлы