Ссылка на приватное зеркало нашего сайта всего за 1$. Внимание количество ограничено!!!

2 сезон

iTunes

1 сезон

1

2 сезон

2 сезон

iTunes

1 сезон

RePack

30

Новинка

ВАЖНО

ИГРА 18+

pack

RePack

MK11
pack

Забери бонус

RePack

jed

!!Акция!!

Alien_Rage

RePack

fifa19

RePack

Assassins Creed: Odyssey

RePack

NEED FOR SPEED™ PAYBACK

4 сезон

9 сезон

Бесстыжие 9 сезон

Все сериалы

все сериалы на PB.wtf

RePack

FAR CRY 5
  

Грешница / The Sinner / Сезон 1 / Серии 1-8 из 8 (Антонио Кампос, Брэд Андерсон) [2017, триллер, WEBRip 720p] MVO [Jaskier] pb.wtf

Грешница через торрент pb.wtf

Размер: 12.17 GB | Добавлен: 3 года 2 мес. назад | Торрент скачан:83 раза
Скачать  

05-08-2017 12:44 Грешница Скачать торрент  

Грешница / The Sinner
Год выпуска: 2017
Страна: США
Жанр: триллер
Продолжительность: 8 ~ 00:45:00
Перевод: Профессиональный (многоголосый) Jaskier
Субтитры: английские

Режиссер: Антонио Кампос, Брэд Андерсон

rating

В ролях: Джессика Бил, Джейкоб Бергер, Спенсер Гранезе, Эдриэнн Ловетт, Кристофер Эбботт, Патти Д Арбанвиль, Элейн дель Валье, Роберт Фунаро и др.

Описание: История о молодой матери, совершающей ужасные акты насилия, понятия не имея, почему, и детективе, который становится одержим делом, стремится углубиться в прошлое женщины и выяснить причины такого поведения.

Качество: WEBRip 720p
Формат: MKV
Видео кодек: H.264
Аудио кодек: AC3

Видео: ~ 5600 kbps | 1280x720 (16:9) , 23.976 fps
Аудио#1: RU: AC3 | 48.0 KHz | 6 ch | 384 kbps
Аудио#2: EN: AC3 | 48.0 KHz | 6 ch | 384 kbps

скриншот   скриншот   скриншот  

бщее
Уникальный идентификатор : 205069432388244965484523582702193773585 (0x9A46EFA1123A29DD8374ADD54CFC8C11)
Полное имя : D:\The.Sinner. Season 1 (WEBRip l 720p l Jaskier)\The.Sinner.S01E01.720p.AMZN.WEBRip.DDP5.1.x264-Jaskier.mkv
Формат : Matroska
Версия формата : Version 2
Размер файла : 2,11 Гбайт
Продолжительность : 46 м. 27 с.
Общий поток : 6500 Кбит/сек
Дата кодирования : UTC 2017-08-05 11:36:40
Программа кодирования : mkvmerge v7.8.0 ('River Man') 32bit built on Apr 3 2015 12:11:22
Библиотека кодирования : libebml v1.3.1 + libmatroska v1.4.2

Видео
Идентификатор : 1
Формат : AVC
Формат/Информация : Advanced Video Codec
Профиль формата : High@L4.1
Параметр CABAC формата : Да
Параметр ReFrames формата : 9 кадров
Идентификатор кодека : V_MPEG4/ISO/AVC
Продолжительность : 46 м. 27 с.
Битрейт : 5603 Кбит/сек
Ширина : 1280 пикселей
Высота : 720 пикселей
Соотношение сторон : 16:9
Режим частоты кадров : Постоянный
Частота кадров : 23,976 (24000/1001) кадра/сек
Цветовое пространство : YUV
Субдискретизация насыщенности : 4:2:0
Битовая глубина : 8 бит
Тип развёртки : Прогрессивная
Бит/(Пиксели*Кадры) : 0.254
Размер потока : 1,82 Гбайт (86%)
Библиотека кодирования : x264 core 148 r2638 7599210
Настройки программы : cabac=1 / ref=9 / deblock=1:-3:-3 / analyse=0x3:0x133 / me=umh / subme=10 / psy=1 / psy_rd=1.00:0.00 / mixed_ref=1 / me_range=48 / chroma_me=1 / trellis=2 / 8x8dct=1 / cqm=0 / deadzone=21,11 / fast_pskip=0 / chroma_qp_offset=-2 / threads=12 / lookahead_threads=2 / sliced_threads=0 / nr=0 / decimate=0 / interlaced=0 / bluray_compat=0 / constrained_intra=0 / bframes=9 / b_pyramid=0 / b_adapt=2 / b_bias=0 / direct=3 / weightb=1 / open_gop=0 / weightp=2 / keyint=240 / keyint_min=23 / scenecut=40 / intra_refresh=0 / rc=crf / mbtree=0 / crf=17.0 / qcomp=0.60 / qpmin=10 / qpmax=51 / qpstep=4 / ip_ratio=1.40 / pb_ratio=1.30 / aq=3:0.70
Язык : English
Default : Да
Forced : Нет

Аудио #1
Идентификатор : 2
Формат : AC-3
Формат/Информация : Audio Coding 3
Расширение режима : CM (complete main)
Параметр Endianness формата : Big
Идентификатор кодека : A_AC3
Продолжительность : 46 м. 27 с.
Вид битрейта : Постоянный
Битрейт : 384 Кбит/сек
Каналы : 6 каналов
Расположение каналов : Front: L C R, Side: L R, LFE
Частота : 48,0 КГц
Частота кадров : 31,250 кадров/сек (1536 spf)
Метод сжатия : С потерями
Размер потока : 128 Мбайт (6%)
Заголовок : Jaskier
Язык : Russian
Default : Да
Forced : Нет

Аудио #2
Идентификатор : 3
Формат : AC-3
Формат/Информация : Audio Coding 3
Расширение режима : CM (complete main)
Параметр Endianness формата : Big
Идентификатор кодека : A_AC3
Продолжительность : 46 м. 27 с.
Вид битрейта : Постоянный
Битрейт : 384 Кбит/сек
Каналы : 6 каналов
Расположение каналов : Front: L C R, Side: L R, LFE
Частота : 48,0 КГц
Частота кадров : 31,250 кадров/сек (1536 spf)
Метод сжатия : С потерями
Размер потока : 128 Мбайт (6%)
Язык : English
Default : Нет
Forced : Нет

Текст
Идентификатор : 4
Формат : UTF-8
Идентификатор кодека : S_TEXT/UTF8
Идентификатор кодека/Информация : UTF-8 Plain Text
Язык : English
Default : Нет
Forced : Нет

Когда раздача ведётся путём добавления новых серий, при каждом добавлении создётся новый торрент. Чтобы начать докачку новой серии, пользователям необходимо сделать следующее:
(1) остановить скачивание,
(2) удалить старый торрент у себя из клиента (старые серии удалять не надо),
(3) скачать новый торрент и запустить его у себя в клиенте вместо старого, при этом указать клиенту путь в старую папку, куда и должно происходить скачивание новых серий.
Ваш клиент при этом должен произвести хеширование (проверку) старой папки (если не производит сам - помогите ему сделать это), и будет докачивать только те серии, которых у вас ещё нет. Старые серии при этом не удаляются, а продолжают раздаваться!
Eсли вы уже удалили старые серии, то предотвратить повторную закачку старых серий можно, отжав галочку в соответсвующих местах при запуске нового торрента. По возможности, желательно не удалять старые серии как можно дольше, чтобы релизёр не столько продолжал раздавать старые серии, а смог сконцентрироваться на новых.
pb.wtf



Скачать Грешница через торрент http://s018.radikal.ru/i524/1708/b3/f76548762f8d.png Скачать фильм Грешница через торрент бесплантно в хорошем качестве Описание: История о молодой матери, совершающей ужасные акты насилия, понятия не имея, почему, и детективе, который становится одержим ... 10 10 7
Info! Серебряная раздача, засчитывается только 50% скачанного.
Торрент: Зарегистрирован [2017-09-24 11:11] · скачан: 83 раз
Статус: √ проверено
Размер: 12.17 GB
Как cкачать? Как скачать Грешница через торрент | qTorrent

% Раздел Тема Автор DL S | L
Зарубежные сериалы [ 9.04 GB ] Грешница / Грешники / The Sinner / Сезон: 3 / Серии: 1-8 из 8 [2020 WEB-DL 720p] MVO [TVShows] bober100 Скачать
1 | 0
Зарубежные сериалы [ 20.34 GB ] Грешница / Грешники / The Sinner / Сезон: 3 / Серии: 1-8 из 8 [2020 WEB-DL 1080p] MVO [TVShows] bober100 Скачать
1 | 0
Зарубежные сериалы [ 19.51 GB ] Грешница / Грешники / The Sinner / Сезон: 3 / Серии: 1-8 из 8 [2020 WEB-DL 1080p] MVO [Jaskier] bober100 Скачать
1 | 0
Зарубежные сериалы [ 8.22 GB ] Грешница / Грешники / The Sinner / Сезон: 3 / Серии: 1-8 из 8 [2020 WEB-DL 720p] MVO [Jaskier] bober100 Скачать
1 | 0
Зарубежные сериалы [ 4.7 GB ] Грешница / Грешники / The Sinner / Сезон: 3 / Серии: 1-8 из 8 [2020 WEB-DLRip] MVO [Jaskier] bober100 Скачать
1 | 0
Зарубежные сериалы [ 9.54 GB ] Грешница / Грешники / The Sinner / Сезон: 3 / Серии: 1-8 из 8 [2020 WEB-DL 720p] MVO [LostFilm] bober100 Скачать
1 | 0
Зарубежные сериалы [ 20.83 GB ] Грешница / Грешники / The Sinner / Сезон: 3 / Серии: 1-8 из 8 [2020 WEB-DL 1080p] MVO [LostFilm] bober100 Скачать
1 | 0


Последний раз редактировалось: bober100 (2017-09-24 11:10), всего редактировалось 7 раз(а)

28-11-2019 20:33  

Отключить всю рекламу на сайте

05-08-2017 13:19 Грешница Скачать торрент  

стоит просмотра или нудятина?pb.wtf



21-08-2017 15:14 Грешница Скачать торрент  

Очень захватывающий сериал. Посмотрел все имеющиеся серии, пока телефон не разрядился! Всем рекомендую, нечто необычно интересное.pb.wtf



02-09-2017 10:58 Грешница Скачать торрент  

сериал нормуль, стоит потраченного времениpb.wtf



03-09-2017 18:55 Грешница Скачать торрент  

история про тупую п..ду, которая по молодости будучи обдолбанной в хлам сношалась со всеми подряд. даже не помнит, сколько же партнеров ее отымели. потом притворилась целкой и удачно выскочила замуж за обычного ничем неприметного парня, который случайно узнает о ее похождениях в молодости, акуевает и впадает в уныние... таких историй в нашей обыденной жизни миллион. в каждом подъезде такая шалашовка живет.pb.wtf



30-09-2017 07:23 Грешница Скачать торрент  

kolinzu писал(а):

история про тупую п..ду, которая по молодости будучи обдолбанной в хлам сношалась со всеми подряд. даже не помнит, сколько же партнеров ее отымели. потом притворилась целкой и удачно выскочила замуж за обычного ничем неприметного парня, который случайно узнает о ее похождениях в молодости, акуевает и впадает в уныние... таких историй в нашей обыденной жизни миллион. в каждом подъезде такая шалашовка живет.

pb.wtf



    Дорогой пользователь! Огромная просьба, поблагодарите релизера, оцените раздачу и оставьте свои комментарий, если Вы скачали Грешница через торрент бесплатно! Внесите свою лепту в развитие PiratBit!
    Комментировать посты могут только пользователи прошедшие не сложную регистрацию
    Показать сообщения:    

    Грешница через торрент
    Скачать бесплатно Грешница
    Грешница скачать торрент
    Грешница смотреть онлайн
    Cкачать фильм Грешница бесплатно
    Грешница скачать торрент в хорошем качестве
    Грешница смотреть онлайн бесплатно в хорошем качестве


    Вы не можете начинать темы
    Вы не можете отвечать на сообщения
    Вы не можете редактировать свои сообщения
    Вы не можете удалять свои сообщения
    Вы не можете голосовать в опросах
    Вы не можете прикреплять файлы к сообщениям
    Вы можете скачивать файлы