Ссылка на приватное зеркало нашего сайта всего за 1$. Внимание количество ограничено!!!

2 сезон

iTunes

1 сезон

1

2 сезон

2 сезон

iTunes

1 сезон

RePack

30

Новинка

ВАЖНО

ИГРА 18+

pack

RePack

MK11
pack

Забери бонус

RePack

jed

!!Акция!!

Alien_Rage

RePack

fifa19

RePack

Assassins Creed: Odyssey

RePack

NEED FOR SPEED™ PAYBACK

4 сезон

9 сезон

Бесстыжие 9 сезон

Все сериалы

все сериалы на PB.wtf

RePack

FAR CRY 5
  

Союзники / Allied (Роберт Земекис) [2016, Боевик, триллер, драма, мелодрама, военный, BD Remux 1080p] [Лицензия] 2xDUB+2xAVO pb.wtf

Союзники через торрент pb.wtf

Размер: 34.92 GB | Добавлен: 3 года 3 мес. назад | Торрент скачан:22 раза
Скачать  

05-08-2017 15:25 Союзники Скачать торрент  

Союзники / AlliedГод выпуска: 2016
Страна: США, Великобритания
Жанр: Боевик, триллер, драма, мелодрама, военный
Продолжительность: 02:04:35
Перевод: Дубляж Лицензия, авторский
Субтитры: Русские (forced, full), украинские (forced, full), английские (forced, full)

Режиссер: Роберт Земекис

rating

В ролях:

Брэд Питт, Марион Котийяр, Лиззи Каплан, Аугуст Диль, Шарлотта Хоуп, Рэффи Кэссиди, Мэттью Гуд, Дэниэл Беттс, Саймон МакБерни, Джаред Харрис

Описание:

Захватывающий рассказ о любви двух агентов случившейся на войне во время выполнения задания в Касабланке - убийство немецкого посла. Стильно, красиво, нарядно, музыкально и трагично! О чувствах, что прощают во имя любви, потому как это война и нет на ней солдат ни правых, ни виноватых, это война в которой отдают приказы, шантажируют или просто убивают. Это махина раздавливающая человеческое в человеке и лишь дух способен спасти память.

Качество: BD Remux 1080p
Формат: MKV
Видео кодек: H.264
Аудио кодек: AC3

Видео: 28.8 Mбит/с, 1920x1080, 23.976 кадр/с
Аудио#1: Русский AC3 / 5.1 / 48 kHz / 640 kbps - Дубляж (Blu-ray CEE)
Аудио#2: Русский DTS-HD MA Audio 5.1 / 48 kHz / 3320 kbps - Авторский (Дохалов)
Аудио#3: Русский DTS-HD MA Audio 5.1 / 48 kHz / 3372 kbps - Авторский (Котов)
Аудио#4: Английский DTS-HD MA Audio 5.1 / 48 kHz / 3333 kbps - Оригинал
Аудио#5: Украинский AC3 / 5.1 / 48 kHz / 640 kbps - Дубляж
скриншот   скриншот   скриншот   скриншот   скриншот  

Общее
Уникальный идентификатор : 206003471077395738166252988278739027860 (0x9AFAD34AC3BA206E9EACC75D0DABC794)
Полное имя : D:\РЕМУКС!!!!!\Союзники. BDRemux.mkv
Формат : Matroska
Версия формата : Version 4 / Version 2
Размер файла : 34,9 Гбайт
Продолжительность : 2 ч. 4 м.
Режим общего битрейта : Переменный
Общий поток : 40,1 Мбит/сек
Название фильма : Союзники. BDRemux.thx:SPOMOPS.
Дата кодирования : UTC 2017-07-14 05:51:30
Программа кодирования : mkvmerge v6.1.0 ('Old Devil') built on Mar 4 2013 09:10:42
Библиотека кодирования : libebml v1.3.0 + libmatroska v1.4.0

Видео
Идентификатор : 1
Формат : AVC
Формат/Информация : Advanced Video Codec
Профиль формата : High@L4.1
Параметр CABAC формата : Да
Параметр RefFrames формата : 4 кадра
Идентификатор кодека : V_MPEG4/ISO/AVC
Продолжительность : 2 ч. 4 м.
Вид битрейта : Переменный
Максимальный битрейт : 35,0 Мбит/сек
Ширина : 1920 пикселей
Высота : 1080 пикселей
Соотношение сторон : 16:9
Режим частоты кадров : Постоянный
Частота кадров : 23,976 (24000/1001) кадра/сек
Цветовое пространство : YUV
Субдискретизация насыщенности : 4:2:0
Битовая глубина : 8 бит
Тип развёртки : Прогрессивная
Язык : English
Default : Да
Forced : Нет

Аудио #1
Идентификатор : 2
Формат : AC-3
Формат/Информация : Audio Coding 3
Параметр Endianness формата : Big
Идентификатор кодека : A_AC3
Продолжительность : 2 ч. 4 м.
Вид битрейта : Постоянный
Битрейт : 640 Кбит/сек
Каналы : 6 каналов
Расположение каналов : Front: L C R, Side: L R, LFE
Частота : 48,0 КГц
Частота кадров : 31,250 кадров/сек (1536 SPF)
Битовая глубина : 16 бит
Метод сжатия : С потерями
Размер потока : 570 Мбайт (2%)
Заголовок : Русский АСЗ 640 - Дубляж
Язык : Russian
ServiceKind/String : Complete Main
Default : Да
Forced : Нет

Аудио #2
Идентификатор : 3
Формат : DTS
Формат/Информация : Digital Theater Systems
Профиль формата : MA / Core
Режим : 16
Параметр Endianness формата : Big
Идентификатор кодека : A_DTS
Продолжительность : 2 ч. 4 м.
Вид битрейта : Переменный / Постоянный
Битрейт : Неизвестно / 1509 Кбит/сек
Каналы : 6 каналов
Расположение каналов : Front: L C R, Side: L R, LFE
Частота : 48,0 КГц
Частота кадров : 93,750 кадра/сек (512 SPF)
Битовая глубина : 24 бит
Метод сжатия : Без потерь / Lossy
Заголовок : Русский DTS-HD MA - АП (Дохалов)
Язык : Russian
Default : Нет
Forced : Нет

Аудио #3
Идентификатор : 4
Формат : DTS
Формат/Информация : Digital Theater Systems
Профиль формата : MA / Core
Режим : 16
Параметр Endianness формата : Big
Идентификатор кодека : A_DTS
Продолжительность : 2 ч. 4 м.
Вид битрейта : Переменный / Постоянный
Битрейт : Неизвестно / 1509 Кбит/сек
Каналы : 6 каналов
Расположение каналов : Front: L C R, Side: L R, LFE
Частота : 48,0 КГц
Частота кадров : 93,750 кадра/сек (512 SPF)
Битовая глубина : 24 бит
Метод сжатия : Без потерь / Lossy
Заголовок : Русский DTS-HD MA 3372 - АП (Котов)
Язык : Russian
Default : Нет
Forced : Нет

Аудио #4
Идентификатор : 5
Формат : DTS
Формат/Информация : Digital Theater Systems
Профиль формата : MA / Core
Режим : 16
Параметр Endianness формата : Big
Идентификатор кодека : A_DTS
Продолжительность : 2 ч. 4 м.
Вид битрейта : Переменный / Постоянный
Битрейт : Неизвестно / 1509 Кбит/сек
Каналы : 6 каналов
Расположение каналов : Front: L C R, Side: L R, LFE
Частота : 48,0 КГц
Частота кадров : 93,750 кадра/сек (512 SPF)
Битовая глубина : 24 бит
Метод сжатия : Без потерь / Lossy
Заголовок : Английский DTS-HD MA 3333 - оригинал
Язык : English
Default : Нет
Forced : Нет

Аудио #5
Идентификатор : 6
Формат : AC-3
Формат/Информация : Audio Coding 3
Параметр Endianness формата : Big
Идентификатор кодека : A_AC3
Продолжительность : 2 ч. 4 м.
Вид битрейта : Постоянный
Битрейт : 640 Кбит/сек
Каналы : 6 каналов
Расположение каналов : Front: L C R, Side: L R, LFE
Частота : 48,0 КГц
Частота кадров : 31,250 кадров/сек (1536 SPF)
Битовая глубина : 16 бит
Метод сжатия : С потерями
Размер потока : 570 Мбайт (2%)
Заголовок : Украинский АСЗ 640 - Дубляж
Язык : Ukrainian
ServiceKind/String : Complete Main
Default : Нет
Forced : Нет

Текст #1
Идентификатор : 7
Формат : UTF-8
Идентификатор кодека : S_TEXT/UTF8
Идентификатор кодека/Информация : UTF-8 Plain Text
Заголовок : Русские форс
Язык : Russian
Default : Да
Forced : Нет

Текст #2
Идентификатор : 8
Формат : UTF-8
Идентификатор кодека : S_TEXT/UTF8
Идентификатор кодека/Информация : UTF-8 Plain Text
Заголовок : Русские
Язык : Russian
Default : Нет
Forced : Нет

Текст #3
Идентификатор : 9
Формат : UTF-8
Идентификатор кодека : S_TEXT/UTF8
Идентификатор кодека/Информация : UTF-8 Plain Text
Заголовок : Английские форс.
Язык : English
Default : Нет
Forced : Нет

Текст #4
Идентификатор : 10
Формат : UTF-8
Идентификатор кодека : S_TEXT/UTF8
Идентификатор кодека/Информация : UTF-8 Plain Text
Заголовок : Английские
Язык : English
Default : Нет
Forced : Нет

Текст #5
Идентификатор : 11
Формат : UTF-8
Идентификатор кодека : S_TEXT/UTF8
Идентификатор кодека/Информация : UTF-8 Plain Text
Заголовок : Украинские форс.
Язык : Ukrainian
Default : Нет
Forced : Нет

Текст #6
Идентификатор : 12
Формат : UTF-8
Идентификатор кодека : S_TEXT/UTF8
Идентификатор кодека/Информация : UTF-8 Plain Text
Заголовок : Украинские
Язык : Ukrainian
Default : Нет
Forced : Нет

Меню
00:00:00.000 : en:00:00:00.000
00:05:38.088 : en:00:05:38.088
00:16:39.749 : en:00:16:39.749
00:24:31.428 : en:00:24:31.428
00:33:52.280 : en:00:33:52.280
00:43:07.543 : en:00:43:07.543
00:49:14.118 : en:00:49:14.118
01:01:39.321 : en:01:01:39.321
01:09:36.339 : en:01:09:36.339
01:16:44.016 : en:01:16:44.016
01:26:14.961 : en:01:26:14.961
01:31:53.466 : en:01:31:53.466
01:40:12.173 : en:01:40:12.173
01:47:25.105 : en:01:47:25.105
01:56:35.614 : en:01:56:35.614

pb.wtf



Скачать Союзники через торрент http://s019.radikal.ru/i619/1702/94/c506c2af7f89.jpg Скачать фильм Союзники через торрент бесплантно в хорошем качестве Описание: Захватывающий рассказ о любви двух агентов случившейся на войне во время выполнения задания в Касабланке - убийство немецкого ... 10 10 5
Info! Золотая раздача, скачанное не засчитывается.
Торрент: Зарегистрирован [2017-08-05 15:25] · скачан: 22 раз
Статус: √ проверено
Размер: 34.92 GB
Как cкачать? Как скачать Союзники через торрент | qTorrent

28-11-2019 20:33  

Отключить всю рекламу на сайте

    Дорогой пользователь! Огромная просьба, поблагодарите релизера, оцените раздачу и оставьте свои комментарий, если Вы скачали Союзники через торрент бесплатно! Внесите свою лепту в развитие PiratBit!
    Комментировать посты могут только пользователи прошедшие не сложную регистрацию
    Показать сообщения:    

    Союзники через торрент
    Скачать бесплатно Союзники
    Союзники скачать торрент
    Союзники смотреть онлайн
    Cкачать фильм Союзники бесплатно
    Союзники скачать торрент в хорошем качестве
    Союзники смотреть онлайн бесплатно в хорошем качестве


    Вы не можете начинать темы
    Вы не можете отвечать на сообщения
    Вы не можете редактировать свои сообщения
    Вы не можете удалять свои сообщения
    Вы не можете голосовать в опросах
    Вы не можете прикреплять файлы к сообщениям
    Вы можете скачивать файлы