Ссылка на приватное зеркало нашего сайта всего за 1$. Внимание количество ограничено!!!

2 сезон

iTunes

1 сезон

1

2 сезон

2 сезон

iTunes

1 сезон

RePack

30

Ultimate

ВАЖНО

ИГРА 18+

pack

RePack

MK11
pack

Забери бонус

RePack

jed

!!Акция!!

Alien_Rage

RePack

fifa19

RePack

Assassins Creed: Odyssey

RePack

NEED FOR SPEED™ PAYBACK

4 сезон

9 сезон

Бесстыжие 9 сезон

Все сериалы

все сериалы на PB.wtf

RePack

FAR CRY 5
  

Одарённая / Gifted (Марк Уэбб) [2017, Драма, BD Remux 1080p] DUB [iTunes] pb.wtf

Одарённая через торрент pb.wtf

Раздают: 1 [ 0 KB/s ]
Размер: 24.12 GB | Добавлен: 3 года 3 мес. назад | Торрент скачан:110 раз
Скачать  

05-08-2017 17:51 Одарённая Скачать торрент  

Одарённая / GiftedГод выпуска: 2017
Страна: США
Жанр: Драма
Продолжительность: 01:41:10
Перевод: Дубляж iTunes
Субтитры: Русские, английские

Режиссер: Марк Уэбб

rating

В ролях:

Крис Эванс, Маккенна Грэйс, Линдси Дункан, Дженни Слейт, Октавия Спенсер, Майкл Кендалл Каплан, Джон М. Джексон, Гленн Пламмер, Джон Финн, Элизабет Марвел

Описание:

Не у всех детей счастливое детство. К сожалению, иногда случаются непоправимые трагедии. В новом фильме «Одаренная», у совсем еще юной девочки Марии из жизни уходит родной и любимый человек – ее мама. Девочка осталась сиротой и почти никому нет дела относительно ее будущей судьбы. Однако, к счастью, у мамы был родной брат Фрэнк, который очень любил свою племянницу. Фрэнк, самый обычный парень, работает в своем городке грузчиком и почти никогда не мечтает о чем-то возвышенном. Иногда, правда, задумывается о своей жизни, глядя на морской прибой. Когда же произошла трагедия, молодой мужчина понял, что если он не примет нужного решения, его племянница окажется в детском доме, а он не может этого допустить. Френку приходиться доказывать о своей состоятельности воспитывать девочку. Когда же ему удается это и малышка начала жить с ним под одной крышей, они стали настоящими друзьями. Со временем у Марии обнаружились способности к математике, и дядя решает во что бы то ни стало развивать их. Но про гениальность девочки узнает и ее родная бабушка, властная и деспотичная женщина. Она решает забрать девочку и вырастить из нее гения. На этой почве начинается борьба бабушки и дяди. Кто же выиграет? Пострадает ли при этом девочка? Ответы сможем узнать только после просмотра фильма.?

Качество: BD Remux 1080p
Формат: MKV
Видео кодек: H.264
Аудио кодек: AC3

Видео: MPEG-4 AVC, 1920x1080, 30.0 Mbit/s, 23.976 fps
Аудио#1: 48 kHz, AC3, 5.1, 384 Kbps | Дублированный | iTunes | RUS |
Аудио#2: 48 kHz, DTS-HD MA, 5.1, 3729 Kbps | Оригинал | ENG |
скриншот   скриншот   скриншот   скриншот   скриншот  

General
Unique ID : 186279534151298463085920696286534078845 (0x8C24221EF4B3B370AA6F2B9AFA76917D)
Complete name : F:VideoGifted.2017.BDREMUX.1080p.ExKinoRay.mkv
Format : Matroska
Format version : Version 4 / Version 2
File size : 24.1 GiB
Duration : 1 h 41 min
Overall bit rate mode : Variable
Overall bit rate : 34.1 Mb/s
Encoded date : UTC 2017-07-25 10:54:34
Writing application : mkvmerge v14.0.0 ('Flow') 64bit
Writing library : libebml v1.3.4 + libmatroska v1.4.5

Video
ID : 1
Format : AVC
Format/Info : Advanced Video Codec
Format profile : High@L4.1
Format settings, CABAC : Yes
Format settings, ReFrames : 4 frames
Codec ID : V_MPEG4/ISO/AVC
Duration : 1 h 41 min
Bit rate mode : Variable
Bit rate : 30.0 Mb/s
Maximum bit rate : 31.4 Mb/s
Width : 1 920 pixels
Height : 1 080 pixels
Display aspect ratio : 16:9
Frame rate mode : Constant
Frame rate : 23.976 (24000/1001) FPS
Color space : YUV
Chroma subsampling : 4:2:0
Bit depth : 8 bits
Scan type : Progressive
Bits/(Pixel*Frame) : 0.604
Stream size : 21.2 GiB (88%)
Language : English
Default : Yes
Forced : No

Audio #1
ID : 2
Format : AC-3
Format/Info : Audio Coding 3
Format settings, Endianness : Big
Codec ID : A_AC3
Duration : 1 h 41 min
Bit rate mode : Constant
Bit rate : 384 kb/s
Channel(s) : 6 channels
Channel positions : Front: L C R, Side: L R, LFE
Sampling rate : 48.0 kHz
Frame rate : 31.250 FPS (1536 spf)
Bit depth : 16 bits
Compression mode : Lossy
Stream size : 278 MiB (1%)
Title : iTunes
Language : Russian
Service kind : Complete Main
Default : No
Forced : No

Audio #2
ID : 3
Format : DTS
Format/Info : Digital Theater Systems
Format profile : MA / Core
Mode : 16
Format settings, Endianness : Big
Codec ID : A_DTS
Duration : 1 h 41 min
Bit rate mode : Variable / Constant
Bit rate : 3 729 kb/s / 1 509 kb/s
Channel(s) : 6 channels
Channel positions : Front: L C R, Side: L R, LFE
Sampling rate : 48.0 kHz
Frame rate : 93.750 FPS (512 spf)
Bit depth : 24 bits
Compression mode : Lossless / Lossy
Stream size : 2.64 GiB (11%)
Title : Original
Language : English
Default : No
Forced : No

Text #1
ID : 4
Format : UTF-8
Codec ID : S_TEXT/UTF8
Codec ID/Info : UTF-8 Plain Text
Duration : 1 h 40 min
Bit rate : 104 b/s
Count of elements : 1542
Stream size : 76.4 KiB (0%)
Title : Full
Language : Russian
Default : No
Forced : No

Text #2
ID : 5
Format : UTF-8
Codec ID : S_TEXT/UTF8
Codec ID/Info : UTF-8 Plain Text
Duration : 1 h 40 min
Bit rate : 66 b/s
Count of elements : 1751
Stream size : 48.5 KiB (0%)
Title : Full
Language : English
Default : No
Forced : No

Text #3
ID : 6
Format : UTF-8
Codec ID : S_TEXT/UTF8
Codec ID/Info : UTF-8 Plain Text
Duration : 1 h 40 min
Bit rate : 70 b/s
Count of elements : 1836
Stream size : 51.8 KiB (0%)
Title : SDH
Language : English
Default : No
Forced : No

Text #4
ID : 7
Format : UTF-8
Codec ID : S_TEXT/UTF8
Codec ID/Info : UTF-8 Plain Text
Duration : 1 h 40 min
Bit rate : 79 b/s
Count of elements : 1836
Stream size : 58.5 KiB (0%)
Title : SDH (Colored)
Language : English
Default : No
Forced : No

Menu
00:00:00.000 : en:00:00:00.000
00:04:36.318 : en:00:04:36.318
00:07:49.302 : en:00:07:49.302
00:12:55.525 : en:00:12:55.525
00:18:50.004 : en:00:18:50.004
00:22:23.008 : en:00:22:23.008
00:29:13.085 : en:00:29:13.085
00:33:18.830 : en:00:33:18.830
00:37:56.399 : en:00:37:56.399
00:42:57.825 : en:00:42:57.825
00:45:34.357 : en:00:45:34.357
00:48:06.675 : en:00:48:06.675
00:50:58.806 : en:00:50:58.806
00:54:31.685 : en:00:54:31.685
00:59:05.959 : en:00:59:05.959
01:03:52.787 : en:01:03:52.787
01:08:44.787 : en:01:08:44.787
01:14:52.279 : en:01:14:52.279
01:19:29.348 : en:01:19:29.348
01:23:44.770 : en:01:23:44.770
01:26:54.751 : en:01:26:54.751
01:29:38.832 : en:01:29:38.832
01:32:49.272 : en:01:32:49.272
01:35:36.648 : en:01:35:36.648

pb.wtf



Скачать Одарённая через торрент http://s015.radikal.ru/i332/1707/ae/283f10eede3b.jpg Скачать фильм Одарённая через торрент бесплантно в хорошем качестве Описание: Не у всех детей счастливое детство. К сожалению, иногда случаются непоправимые трагедии. В новом фильме «Одаренная», у совсем еще ... 10 10 7
Info! Золотая раздача, скачанное не засчитывается.
Торрент: Зарегистрирован [2017-08-05 17:51] · скачан: 110 раз
Статус: √ проверено
Размер: 24.12 GB
Как cкачать? Как скачать Одарённая через торрент | qTorrent

% Раздел Тема Автор DL S | L
Зарубежные сериалы [ 8.6 GB ] Одарённые / The Gifted / Сезон: 2 / Серии: 1-16 из 16 [2018 фэнтэзи WEB-DLRip] MVO [NewStudio] bober100 Скачать
2 | 0
Зарубежные сериалы [ 46.15 GB ] Одаренные / The Gifted / Сезон: 2 / Серии: 1-16 из 16 [2018 WEB-DL 1080p] 2x[MVO] killermax2013 Скачать
1 | 0
Зарубежные сериалы [ 40.85 GB ] Одаренные / The Gifted / Сезон: 1 / Серии: 1-13 из 13 [2017 WEB-DL 1080p] MVO [LostFilm] bober100 Скачать
1 | 0
Зарубежные сериалы [ 19.94 GB ] Одаренные / The Gifted / Сезон: 2 / Серии: 1-16 из 16 [2018 WEB-DL 720p] [MVO] killermax2013 Скачать
1 | 0
Зарубежные сериалы [ 8.54 GB ] Одаренные / The Gifted / Сезон: 2 / Серии: 1-16 из 16 [2018 WEB-DLRip] [MVO] killermax2013 Скачать
1 | 0
Зарубежные сериалы [ 30.99 GB ] Одарённые / The Gifted / 2 сезон / Серии: 1-16 из 16 [2018 WEB-DL 1080p] [MVO] killermax2013 Скачать
1 | 0
Зарубежные сериалы [ 41.38 GB ] Одарённые / The Gifted / 2 сезон / 1-16 серия из 16 [2018 WEB-DL 1080p] [MVO] killermax2013 Скачать
1 | 0

28-11-2019 20:33  

Отключить всю рекламу на сайте

05-08-2017 18:56 Одарённая Скачать торрент  

попадет ли девочка к малахову ???pb.wtf



27-08-2017 15:18 Одарённая Скачать торрент  

kpuctaluk, но только если на донышке...pb.wtf



    Дорогой пользователь! Огромная просьба, поблагодарите релизера, оцените раздачу и оставьте свои комментарий, если Вы скачали Одарённая через торрент бесплатно! Внесите свою лепту в развитие PiratBit!
    Комментировать посты могут только пользователи прошедшие не сложную регистрацию
    Показать сообщения:    

    Одарённая через торрент
    Скачать бесплатно Одарённая
    Одарённая скачать торрент
    Одарённая смотреть онлайн
    Cкачать фильм Одарённая бесплатно
    Одарённая скачать торрент в хорошем качестве
    Одарённая смотреть онлайн бесплатно в хорошем качестве


    Вы не можете начинать темы
    Вы не можете отвечать на сообщения
    Вы не можете редактировать свои сообщения
    Вы не можете удалять свои сообщения
    Вы не можете голосовать в опросах
    Вы не можете прикреплять файлы к сообщениям
    Вы можете скачивать файлы