Ссылка на приватное зеркало нашего сайта всего за 1$. Внимание количество ограничено!!!

2 сезон

iTunes

1 сезон

1

2 сезон

2 сезон

iTunes

1 сезон

RePack

30

Новинка

ВАЖНО

ИГРА 18+

pack

RePack

MK11
pack

Забери бонус

RePack

jed

!!Акция!!

Alien_Rage

RePack

fifa19

RePack

Assassins Creed: Odyssey

RePack

NEED FOR SPEED™ PAYBACK

4 сезон

9 сезон

Бесстыжие 9 сезон

Все сериалы

все сериалы на PB.wtf

RePack

FAR CRY 5
  

Кремниевая долина / Silicon Valley / Сезон 4 / Серии 1-10 из 10 (Майк Джадж, Алек Берг, Эрик Аппель) [2017, комедия, WEBRip] DVO+VO [Кубик в Кубе] pb.wtf

Кремниевая долина через торрент pb.wtf

Раздают: 1 [ 0 KB/s ]
Размер: 3.74 GB | Добавлен: 3 года 3 мес. назад | Торрент скачан:195 раз
Скачать  

06-08-2017 02:32 Кремниевая долина Скачать торрент  

Кремниевая долина / Silicon ValleyГод выпуска: 2017
Страна: США
Жанр: комедия
Продолжительность: 10 ~ 00:31:00
Перевод: Профессиональный (одноголосый, двуголосый (2 серия), закадровый) - Кубик в Кубе
Субтитры: отсутствуют
✦ Примечание: Без рекламы! / "В предыдущих сериях" без озвучки.

Режиссер: Майк Джадж, Алек Берг, Эрик Аппель

rating

В ролях:

Томас Миддлдитч, ТиДжей Миллер, Джош Бренер, Мартин Старр, Кумэйл Нанджиани, Али Моджи, Аманда Крю, Зак Вудс, Кристофер Ивэн Уэлш, Мэтт Росс и др.

Описание:

В четвёртом сезоне IT-комедии про одержимых стартапами гениев ожидаются большие перемены. После всех волнений чуть было не потерявший компанию Ричард Хендрикс вдруг собирается покинуть Pied Piper (прихватив при этом название) и начать всё с чистого листа. Планы у него, прямо скажем, мегаломанские – например, “почему бы не создать новый Интернет”? Разумеется, все, включая Монику, считают это полным безумием. Но у Ричарда находится один единственный союзник, готовый рискнуть ради новой авантюры – Джаред. Что ж, риск благородное дело. А вот прибыльное или нет, скоро узнаем.

Качество: WEBRip
Формат: AVI
Видео кодек: XviD
Аудио кодек: MP3

Видео: ~1500 kbps, 720x400 (16:9), 23.976 fps
Аудио#1: RUS: MP3, 48 KHz, 2 ch, 128 kbps
Аудио#2: ENG: MP3, 48 KHz, 2 ch, 128 kbps


Автор перевода: Василий Мерзляков
Озвучка: Руслан Габидуллин, Ольга Кравцова (2 серия)

скриншот   скриншот   скриншот  

Общее
Полное имя : D:\Кремниевая долина (сезон 4) Silicon Valley (2017) WEBRip - KvK\Silicon.Valley.S04E01.WEBRip.Rus.Eng.DV.KvK.avi
Формат : AVI
Формат/Информация : Audio Video Interleave
Размер файла : 395 Мбайт
Продолжительность : 31 м. 24 с.
Общий поток : 1759 Кбит/сек
Название фильма : Silicon.Valley.S04E01.WEBRip.Rus.Eng.DV.KvK / NNM-Club
Программа кодирования : VirtualDubModRus 1.5.10.2 (build 2542/release)
Библиотека кодирования : VirtualDubMod build 2542/release

Видео
Идентификатор : 0
Формат : MPEG-4 Visual
Профиль формата : Advanced Simple@L5
Параметр BVOP формата : 2
Параметр QPel формата : Нет
Параметр GMC формата : Без точки перехода
Параметр матрицы формата : Default (H.263)
Идентификатор кодека : XVID
Идентификатор кодека/Подсказка : XviD
Продолжительность : 31 м. 24 с.
Битрейт : 1489 Кбит/сек
Ширина : 720 пикселей
Высота : 400 пикселей
Соотношение сторон : 16:9
Частота кадров : 23,976 (24000/1001) кадра/сек
Цветовое пространство : YUV
Субдискретизация насыщенности : 4:2:0
Битовая глубина : 8 бит
Тип развёртки : Прогрессивная
Метод сжатия : С потерями
Бит/(Пиксели*Кадры) : 0.216
Размер потока : 335 Мбайт (85%)
Заголовок : Rip by DriverV / NNM-Club
Библиотека кодирования : XviD 64

Аудио #1
Идентификатор : 1
Формат : MPEG Audio
Версия формата : Version 1
Профиль формата : Layer 3
Режим : Joint stereo
Идентификатор кодека : 55
Идентификатор кодека/Подсказка : MP3
Продолжительность : 31 м. 24 с.
Вид битрейта : Постоянный
Битрейт : 128 Кбит/сек
Каналы : 2 канала
Частота : 48,0 КГц
Метод сжатия : С потерями
Размер потока : 28,8 Мбайт (7%)
Выравнивание : Соединение по промежуткам
Продолжительность промежутка : 42 мс. (1,00 видеокадр)
Время предзагрузки промежутка : 504 мс.

Аудио #2
Идентификатор : 2
Формат : MPEG Audio
Версия формата : Version 1
Профиль формата : Layer 3
Режим : Joint stereo
Идентификатор кодека : 55
Идентификатор кодека/Подсказка : MP3
Продолжительность : 31 м. 24 с.
Вид битрейта : Постоянный
Битрейт : 128 Кбит/сек
Каналы : 2 канала
Частота : 48,0 КГц
Метод сжатия : С потерями
Размер потока : 28,8 Мбайт (7%)
Выравнивание : Соединение по промежуткам
Продолжительность промежутка : 42 мс. (1,00 видеокадр)
Время предзагрузки промежутка : 504 мс.

pb.wtf



Скачать Кремниевая долина через торрент http://s018.radikal.ru/i515/1708/93/d1b5854708b8.png Скачать фильм Кремниевая долина через торрент бесплантно в хорошем качестве Описание: В четвёртом сезоне IT-комедии про одержимых стартапами гениев ожидаются большие перемены. После всех волнений чуть было не ... 10 10 4
Торрент: Зарегистрирован [2017-08-06 02:32] · скачан: 195 раз
Статус: √ проверено
Размер: 3.74 GB
Как cкачать? Как скачать Кремниевая долина через торрент | qTorrent

% Раздел Тема Автор DL S | L
Зарубежные сериалы [ 77.77 GB ] Кремниевая долина / Силиконовая долина / Silicon Valley / Сезон: 1-4 / Серии: 1-38 из 38 [2014-2017 BDRip 1080p] [DVO] + [MVO] killermax2013 Скачать
3 | 1

28-11-2019 20:33  

Отключить всю рекламу на сайте

    Дорогой пользователь! Огромная просьба, поблагодарите релизера, оцените раздачу и оставьте свои комментарий, если Вы скачали Кремниевая долина через торрент бесплатно! Внесите свою лепту в развитие PiratBit!
    Комментировать посты могут только пользователи прошедшие не сложную регистрацию
    Показать сообщения:    

    Кремниевая долина через торрент
    Скачать бесплатно Кремниевая долина
    Кремниевая долина скачать торрент
    Кремниевая долина смотреть онлайн
    Cкачать фильм Кремниевая долина бесплатно
    Кремниевая долина скачать торрент в хорошем качестве
    Кремниевая долина смотреть онлайн бесплатно в хорошем качестве


    Вы не можете начинать темы
    Вы не можете отвечать на сообщения
    Вы не можете редактировать свои сообщения
    Вы не можете удалять свои сообщения
    Вы не можете голосовать в опросах
    Вы не можете прикреплять файлы к сообщениям
    Вы можете скачивать файлы