новый адрес
Ссылка на приватное зеркало всего за 1$. Внимание количество ограничено!!!

iTunes

1+1

iTunes

мы

iTunes

1

iTunes

Чернобыль

iTunes

Ральф против интернета

Лицензия

ПШазам

Лицензия

Оно 2

Лицензия

30
pack

Вам бонус

ВАЖНО

!!Акция!!

Alien_RageХит недели

RePack

Resident Evil 21

ИГРА 18+

pack

RePack

jed

!!Акция!!

Alien_Rage

RePack

fifa19

RePack

Assassins Creed: Odyssey

RePack

NEED FOR SPEED™ PAYBACK

3 сезон

9 сезон

Бесстыжие 9 сезон

Все сериалы

все сериалы на PB.wtf

RePack

FAR CRY 5
Ребята, катастрофически не хватает 1900р. для оплаты серверов за Октябрь (всвязи с блокировками трафик упал в 3 раза), 1-2р., выручайте.
  

Первые фильмы: Сегодня увольнения не будет / Аптекарша / В горах моё сердце (Андрей Тарковский, Станислав Говорухин, Рустам Хамдамов) [1958-1967, СССР, военный, драма, комедия, DVDRip от AVP Studio] pb.wtf

Первые фильмы: Сегодня увольнения не будет через торрент pb.wtf

Размер: 1.45 GB | Добавлен: 2 года 3 мес. назад | Торрент скачан:24 раза
Скачать  

06-08-2017 08:42 Первые фильмы: Сегодня увольнения не будет Скачать торрент  

Первые фильмы: В горах моё сердце / Сегодня увольнения не будет / Аптекарша
Страна: СССР
Производство: ВГИК

Жанр: военный, драма, комедия
Год выпуска: 1958-1967
Продолжительность: 01:39:45 (00:46:37 + 00:22:18 + 00:30:50)

Перевод: Не требуется
Cубтитры: нет
Оригинальная аудиодорожка: русский

Режиссер: Андрей Тарковский, Станислав Говорухин, Рустам Хамдамов

В ролях:
Сегодня увольнения не будет
Олег Борисов, Алексей Алексеев, Пётр Любешкин, Олег Мокшанцев, Владимир Маренков, Игорь Косухин, Леонид Куравлёв, Станислав Любшин, А. Смирнов, Алексей Добронравов, Нина Головина...
Аптекарша
Тамара Совчи, Александр Январёв, Борис Иванов, Юрий Катин-Ярцев...
В горах мое сердце
Вячеслав Кулешов, Алла Боброва, Людмила Назарова, Елена Соловей, Александр Костомолоцкий, Сергей Годзи, Пётр Репнин...

Описание:
Сегодня увольнения не будет (Андрей Тарковский, 1958, военный)
Во время земельных работ на улице Советской бригада коммунального хозяйства обнаруживает в земле немецкий склад боеприпасов, оставшийся со времен войны. 30 тонн взрывчатки пролежали в земле 15 лет. По инструкции разминировать нельзя - к ним и прикасаться опасно. Но и взрывать невозможно! - вокруг жилые кварталы. Дело поручают группе капитана Галича. К 10 утра следующего дня все население эвакуируют за черту города, а в зловещем котловане 7 человек начинают игру со смертью…
Аптекарша (Станислав Говорухин, 1964, драма)
Заштатный городишко спит непробудным сном. Не спит только молодая жена пожилого провизора Черномордика, содержателя аптеки.
Она ложилась уже три раза, но сон упрямо не идет к ней. Вдруг среди ночной тишины раздаются чьи-то шаги. Немного погодя за окном показываются две фигуры в белых офицерских кителях: одна большая и толстая, другая поменьше и тоньше... Через мгновение в аптеке раздается звонок, и взволнованная аптекарша открывает дверь офицерам. Молодой офицер Обтесов заказывает мятных лепешек на 15 копеек. А более опытный доктор затевает непринужденную беседу. И вот уже на столике появляется бутылка вина, и молоденькая аптекарша соглашается выпить капельку…
В горах мое сердце (Рустам Хамдамов, 1967, комедия)
В городе утро. Море, трамваи, на мостовой - пианино.
В город прибывает великий актер Мак-Грегор, песни которого заставляют трепетать сердца от горя и радости. Но сердце самого актера не здесь, а в далеких прекрасных горах. Великого актера приглашает на завтрак один из величайших поэтов мира. Сын поэта по этому случаю отправлен в лавку Козака за свежим батоном, фунтом сыра и бутылкой вина. Но в лавке Козака больше не отпускают в кредит. "Когда он получит деньги?" - спрашивает месье Козак у мальчика. "Никогда, - отвечает мальчик, - Нельзя быть великим и брать за это деньги!"

Источник: DVD9 R5
Качество видео: DVDRip
Формат видео: AVI

Видео: 672x496 (4:3), 25 fps, XviD ~ 1866 kbps avg, 0.224 bit/pixel
Аудио: 48 kHz, Dolby Digital AC3 2.0, 192 kbps

Раздача от:
Общее
Полное имя : Pervye.filmy.1958-1967.DVDRip_[New-team]_by_AVP_Studio.avi
Формат : AVI
Формат/Информация : Audio Video Interleave
Размер файла : 330 Мбайт
Продолжительность : 22 м. 18 с.
Общий поток : 2068 Кбит/сек
Программа кодирования : VirtualDubMod 1.5.10.3 | www.virtualdub-fr.org || (build 2550/release)
Библиотека кодирования : VirtualDubMod build 2550/release

Видео
Идентификатор : 0
Формат : MPEG-4 Visual
Профиль формата : Advanced Simple@L5
Параметр BVOP формата : 1
Параметр QPel формата : Нет
Параметр GMC формата : Без точки перехода
Параметр матрицы формата : Выборочная
Идентификатор кодека : XVID
Идентификатор кодека/Подсказка : XviD
Продолжительность : 22 м. 18 с.
Битрейт : 1866 Кбит/сек
Ширина : 672 пикселя
Высота : 496 пикселей
Соотношение сторон : 4:3
Частота кадров : 25,000 кадров/сек
Цветовое пространство : YUV
Субдискретизация насыщенности : 4:2:0
Битовая глубина : 8 бит
Тип развёртки : Прогрессивная
Метод сжатия : С потерями
Бит/(Пиксели*Кадры) : 0.224
Размер потока : 298 Мбайт (90%)
Библиотека кодирования : XviD 73

Аудио
Идентификатор : 1
Формат : AC-3
Формат/Информация : Audio Coding 3
Параметр Endianness формата : Big
Идентификатор кодека : 2000
Продолжительность : 22 м. 18 с.
Вид битрейта : Постоянный
Битрейт : 192 Кбит/сек
Каналы : 2 канала
Расположение каналов : Front: L R
Частота : 48,0 КГц
Частота кадров : 31,250 кадров/сек (1536 SPF)
Битовая глубина : 16 бит
Метод сжатия : С потерями
Размер потока : 30,6 Мбайт (9%)
Выравнивание : Разделение по промежуткам
Продолжительность промежутка : 40 мс. (1,00 видеокадр)
Время предзагрузки промежутка : 500 мс
pb.wtf



Скачать Первые фильмы: Сегодня увольнения не будет через торрент http://s018.radikal.ru/i507/1710/64/0ab534b07dd5.png Скачать фильм Первые фильмы: Сегодня увольнения не будет через торрент бесплантно в хорошем качестве Описание:Сегодня увольнения не будет (Андрей Тарковский, 1958, военный)Во время земельных работ на улице Советской бригада коммунального ... 10 10 1
Info! Золотая раздача, скачанное не засчитывается.
Торрент: Зарегистрирован [2017-08-06 08:42] · скачан: 24 раз
Статус: √ проверено
Размер: 1.45 GB
Как cкачать? Как скачать Первые фильмы: Сегодня увольнения не будет через торрент | qTorrent

% Раздел Тема Автор DL S | L
Кино СССР [ 1.46 GB ] Первые фильмы: Сегодня увольнения не будет / Аптекарша / В горах моё сердце [1958-1967 СССР военный DVDRip-AVC от AVP Studio] AVP Studio Скачать
1 | 0
    Дорогой пользователь! Огромная просьба, поблагодарите релизера, оцените раздачу и оставьте свои комментарий, если Вы скачали Первые фильмы: Сегодня увольнения не будет через торрент бесплатно! Внесите свою лепту в развитие PiratBit!
    Комментировать посты могут только пользователи прошедшие не сложную регистрацию
    Показать сообщения:    

    Первые фильмы: Сегодня увольнения не будет через торрент
    Скачать бесплатно Первые фильмы: Сегодня увольнения не будет
    Первые фильмы: Сегодня увольнения не будет скачать торрент
    Первые фильмы: Сегодня увольнения не будет смотреть онлайн
    Cкачать фильм Первые фильмы: Сегодня увольнения не будет бесплатно
    Первые фильмы: Сегодня увольнения не будет скачать торрент в хорошем качестве
    Первые фильмы: Сегодня увольнения не будет смотреть онлайн бесплатно в хорошем качестве


    Вы не можете начинать темы
    Вы не можете отвечать на сообщения
    Вы не можете редактировать свои сообщения
    Вы не можете удалять свои сообщения
    Вы не можете голосовать в опросах
    Вы не можете прикреплять файлы к сообщениям
    Вы можете скачивать файлы