Ссылка на приватное зеркало нашего сайта всего за 1$. Внимание количество ограничено!!!

2 сезон

iTunes

1 сезон

1

2 сезон

2 сезон

iTunes

1 сезон

RePack

30

Новинка

ВАЖНО

ИГРА 18+

pack

RePack

MK11
pack

Забери бонус

RePack

jed

!!Акция!!

Alien_Rage

RePack

fifa19

RePack

Assassins Creed: Odyssey

RePack

NEED FOR SPEED™ PAYBACK

4 сезон

9 сезон

Бесстыжие 9 сезон

Все сериалы

все сериалы на PB.wtf

RePack

FAR CRY 5
  

Семейное ограбление / Mes trésors (Паскаль Бурдьо) [2017, Комедия, BD Remux 1080p] DUB [RUS Transfer] [Лицензия] pb.wtf

Семейное ограбление через торрент pb.wtf

Размер: 14.59 GB | Добавлен: 3 года 3 мес. назад | Торрент скачан:71 раз
Скачать  

06-08-2017 10:42 Семейное ограбление Скачать торрент  

Семейное ограбление / Mes trésors
| RUS Transfer |
Год выпуска: 2017
Страна: Франция
Жанр: Комедия
Продолжительность: 01:30:38
Перевод: Дубляж Лицензия
Субтитры: отсутствуют

Режиссер: Паскаль Бурдьо

rating

В ролях:

Жан Рено, Рем Кериси, Камиль Шаму, Бруно Санчес, Паскаль Демолон, Жан Ренес, Марион Брие, Юже Тьерри, Зина Есепчук

Описание:

Анжела и Анжелика — две абсолютно разные девушки, которые не имеют ничего общего. Кроме, разве что, отца, которого они никогда не видели. И вот однажды он появился в их жизни. Вор международного масштаба решил наверстать упущенное, создав с дочерьми безумную команду, чтобы совершить ограбление века. И все бы ничего, только гениальный план Патрика дает сбой, и все идет не по запланированному сценарию...

Качество: BD Remux 1080p
Формат: MKV
Видео кодек: H.264
Аудио кодек: DTS-HD MA

Видео: MPEG-4 AVC, 1920x1080, 19.5 Mbit/s, 24.000 fps
Аудио: 48 kHz, DTS-HD MA, 5.1, 3499 Kbps | Дублированный | Лицензия | RUS |
скриншот   скриншот   скриншот   скриншот   скриншот  

General
Unique ID : 215529584665586527103140836399656228356 (0xA2257CF42DE380FFB45741386B905604)
Complete name : F:VideoMes trésors.2017.BDREMUX.1080p.ExKinoRay.mkv
Format : Matroska
Format version : Version 4 / Version 2
File size : 14.6 GiB
Duration : 1 h 30 min
Overall bit rate mode : Variable
Overall bit rate : 23.0 Mb/s
Encoded date : UTC 2017-05-20 03:43:26
Writing application : mkvmerge v11.0.0 ('Alive') 64bit
Writing library : libebml v1.3.4 + libmatroska v1.4.5

Video
ID : 1
Format : AVC
Format/Info : Advanced Video Codec
Format profile : High@L4
Format settings, CABAC : Yes
Format settings, ReFrames : 2 frames
Format settings, GOP : M=2, N=13
Codec ID : V_MPEG4/ISO/AVC
Duration : 1 h 30 min
Bit rate mode : Variable
Bit rate : 19.5 Mb/s
Maximum bit rate : 22.0 Mb/s
Width : 1 920 pixels
Height : 1 080 pixels
Display aspect ratio : 16:9
Frame rate mode : Constant
Frame rate : 24.000 FPS
Color space : YUV
Chroma subsampling : 4:2:0
Bit depth : 8 bits
Scan type : Progressive
Bits/(Pixel*Frame) : 0.393
Stream size : 12.4 GiB (85%)
Language : Russian
Default : Yes
Forced : No

Audio
ID : 2
Format : DTS
Format/Info : Digital Theater Systems
Format profile : MA / Core
Mode : 16
Format settings, Endianness : Big
Codec ID : A_DTS
Duration : 1 h 30 min
Bit rate mode : Variable / Constant
Bit rate : 3 499 kb/s / 1 509 kb/s
Channel(s) : 6 channels
Channel positions : Front: L C R, Side: L R, LFE
Sampling rate : 48.0 kHz
Frame rate : 93.750 FPS (512 spf)
Bit depth : 24 bits
Compression mode : Lossless / Lossy
Stream size : 2.22 GiB (15%)
Title : Dub [License]
Language : Russian
Default : Yes
Forced : No

pb.wtf



Скачать Семейное ограбление через торрент http://s04.radikal.ru/i177/1705/3e/ed3fcb2b7161.jpg Скачать фильм Семейное ограбление через торрент бесплантно в хорошем качестве Описание: Анжела и Анжелика — две абсолютно разные девушки, которые не имеют ничего общего. Кроме, разве что, отца, которого они никогда не ... 10 10 4
Info! Золотая раздача, скачанное не засчитывается.
Торрент: Зарегистрирован [2017-08-06 10:42] · скачан: 71 раз
Статус: √ проверено
Размер: 14.59 GB
Как cкачать? Как скачать Семейное ограбление через торрент | qTorrent

% Раздел Тема Автор DL S | L
Фильмы 2017 [DVDrip, WEB-DLRip, HDrip] (DUB, MVO) [ 1.36 GB ] Семейное ограбление / Mes trésors [2017 BDRip-AVC] [] - ExKinoRay Enigma2010 Скачать
2 | 0
Фильмы 2017 [DVDrip, WEB-DLRip, HDrip] (DUB, MVO) [ 1.46 GB ] Семейное ограбление / Mes trésors [2017 BDRip] - [] Twi7ter Скачать
1 | 0
Фильмы [HD 720p, 1080p] (Хороший звук DUB, MVO) [ 2.94 GB ] Семейное ограбление / Mes trésors [2017 BDRip 720p] [] - ExKinoRay Enigma2010 Скачать
1 | 0
Фильмы 2017 [DVDrip, WEB-DLRip, HDrip] (DUB, MVO) [ 699 MB ] Семейное ограбление / Mes trеsors [2017 WEB-DLRip] Sherif Скачать
1 | 0
Фильмы (WEB-DL 720p, 1080p) [ 3.25 GB ] Семейное ограбление / Mes trésors [2017 WEB-DL 1080p] - Ворон Скачать
1 | 0

28-11-2019 20:33  

Отключить всю рекламу на сайте

    Дорогой пользователь! Огромная просьба, поблагодарите релизера, оцените раздачу и оставьте свои комментарий, если Вы скачали Семейное ограбление через торрент бесплатно! Внесите свою лепту в развитие PiratBit!
    Комментировать посты могут только пользователи прошедшие не сложную регистрацию
    Показать сообщения:    

    Семейное ограбление через торрент
    Скачать бесплатно Семейное ограбление
    Семейное ограбление скачать торрент
    Семейное ограбление смотреть онлайн
    Cкачать фильм Семейное ограбление бесплатно
    Семейное ограбление скачать торрент в хорошем качестве
    Семейное ограбление смотреть онлайн бесплатно в хорошем качестве


    Вы не можете начинать темы
    Вы не можете отвечать на сообщения
    Вы не можете редактировать свои сообщения
    Вы не можете удалять свои сообщения
    Вы не можете голосовать в опросах
    Вы не можете прикреплять файлы к сообщениям
    Вы можете скачивать файлы