2 сезон

iTunes

MVO

1

2 сезон

iTunes

iTunes

1 сезон

RePack

30

Новинка

ВАЖНО

ИГРА 18+

pack

RePack

MK11
pack

Легкие деньги

RePack

jed

RePack

fifa19

RePack

RDR2

RePack

NEED FOR SPEED™ PAYBACK

4 сезон

9 сезон

Бесстыжие 9 сезон

Все сериалы

все сериалы на PB.wtf

RePack

FAR CRY 5

Anonymous, добрый вечер, мы не успеваем собрать деньги на оплату серверов за декабрь и январь, помогите нам пожалуйста в это трудное время. В качестве благодарности мы отключим Вам всю рекламу на сайте (укажите свой ник в строку Ваше имя)!

×
  
Magnet ссылка

Живое / Life (Даниэль Эспиноса) [2017, ужасы, фантастика, триллер, BDRip 720p 60 fps от еnvy / NNNB] DUB | Лицензия pb.wtf

Живое через торрент pb.wtf

Раздают: 9 [ 3 KB/s ]
Размер: 4.26 GB | Добавлен: 3 года 5 мес. назад | Торрент скачан:594 раза
Скачать  

06-08-2017 10:55 Живое Скачать торрент  

Информация о фильме
Русское название: Живое
Оригинальное название: Life
Год выхода: 2017
Жанр: ужасы, фантастика, триллер
Режиссер: Даниэль Эспиноса
Выпущено: США
Продолжительность: 01:43:58
Перевод: Дублированный
В ролях: Хироюки Санада, Райан Рейнольдс, Ребекка Фергюсон, Джейк Джилленхол, Ольга Дыховичная, Эрион Бакаре, Хесус Дель Орден, Аллен МакЛин, Лейла Грэйс Боствик-Ридделл, Мари Гвелесиани
Описание:
Группа исследователей с международного космического корабля обнаруживает жизнь на Марсе. Они еще не подозревают, какие события повлечет за собой их открытие.
Файл
Качество: BDRip 720p (исходник Blu-ray Disc)
Контейнер: MKV (расширение файла)
Видео: 1280x536, 4472 Кбит/сек, 60.000 кадр/сек, AVC, x264, High@L4.1, 2.40:1, 0.109 Бит/[Пиксели*Кадры]
Аудио 1: AC-3, 640 Кбит/сек, 6 канала(ов), 48,0 КГц - Дублированный / Русский
Аудио 2: AC-3, 640 Кбит/сек, 6 канала(ов), 48,0 КГц - Оригинал / Английский
Субтитры: Русские | Полные, Английские | Полные
Форсированные субтитры: Русские, Английские
Чаптеры (Главы): Есть


Автор Рипа: Сообщество: мы в VK
скриншот   скриншот   скриншот   скриншот   скриншот  
Format : Matroska
Format version : Version 2
File size : 4.26 GiB
Duration : 1 h 43 min
Overall bit rate : 5 869 kb/s
Movie name : Life.(2017).BDRip.720p.[envy].[60fps]
Encoded date : UTC 2017-08-06 09:50:33
Writing application : mkvmerge v5.8.0 ('No Sleep / Pillow') built on Sep 2 2012 15:37:04
Writing library : libebml v1.2.3 + libmatroska v1.3.0

Video
ID : 1
Format : AVC
Format/Info : Advanced Video Codec
Format profile : High@L4.1
Format settings, CABAC : Yes
Format settings, RefFrames : 9 frames
Codec ID : V_MPEG4/ISO/AVC
Duration : 1 h 43 min
Bit rate : 4 472 kb/s
Width : 1 280 pixels
Height : 536 pixels
Display aspect ratio : 2.40:1
Frame rate mode : Constant
Frame rate : 60.000 FPS
Color space : YUV
Chroma subsampling : 4:2:0
Bit depth : 8 bits
Scan type : Progressive
Bits/(Pixel*Frame) : 0.109
Stream size : 3.25 GiB (76%)
Title : Life.(2017).BDRip.720p.[envy].[60fps]
Writing library : x264 core 146 r2538 121396c
Encoding settings : cabac=1 / ref=9 / deblock=1:0:0 / analyse=0x3:0x113 / me=umh / subme=10 / psy=1 / psy_rd=1.00:0.00 / mixed_ref=1 / me_range=24 / chroma_me=1 / trellis=2 / 8x8dct=1 / cqm=0 / deadzone=21,11 / fast_pskip=0 / chroma_qp_offset=-2 / threads=12 / lookahead_threads=1 / sliced_threads=0 / nr=0 / decimate=1 / interlaced=0 / bluray_compat=0 / constrained_intra=0 / bframes=5 / b_pyramid=2 / b_adapt=2 / b_bias=0 / direct=3 / weightb=1 / open_gop=0 / weightp=2 / keyint=250 / keyint_min=25 / scenecut=40 / intra_refresh=0 / rc=crf / mbtree=0 / crf=16.5 / qcomp=0.60 / qpmin=0 / qpmax=69 / qpstep=4 / ip_ratio=1.40 / pb_ratio=1.30 / aq=3:1.00
Language : English
Default : Yes
Forced : No

Audio #1
ID : 2
Format : AC-3
Format/Info : Audio Coding 3
Format settings, Endianness : Big
Codec ID : A_AC3
Duration : 1 h 43 min
Bit rate mode : Constant
Bit rate : 640 kb/s
Channel(s) : 6 channels
Channel positions : Front: L C R, Side: L R, LFE
Sampling rate : 48.0 kHz
Frame rate : 31.250 FPS (1536 SPF)
Bit depth : 16 bits
Compression mode : Lossy
Stream size : 476 MiB (11%)
Title : Dub
Language : Russian
Service kind : Complete Main
Default : Yes
Forced : No

Audio #2
ID : 3
Format : AC-3
Format/Info : Audio Coding 3
Format settings, Endianness : Big
Codec ID : A_AC3
Duration : 1 h 43 min
Bit rate mode : Constant
Bit rate : 640 kb/s
Channel(s) : 6 channels
Channel positions : Front: L C R, Side: L R, LFE
Sampling rate : 48.0 kHz
Frame rate : 31.250 FPS (1536 SPF)
Bit depth : 16 bits
Compression mode : Lossy
Stream size : 476 MiB (11%)
Title : Eng
Language : English
Service kind : Complete Main
Default : No
Forced : No

Text #1
ID : 4
Format : UTF-8
Codec ID : S_TEXT/UTF8
Codec ID/Info : UTF-8 Plain Text
Title : Rus forced
Language : Russian
Default : Yes
Forced : Yes

Text #2
ID : 5
Format : UTF-8
Codec ID : S_TEXT/UTF8
Codec ID/Info : UTF-8 Plain Text
Title : Rus full
Language : Russian
Default : No
Forced : No

Text #3
ID : 6
Format : UTF-8
Codec ID : S_TEXT/UTF8
Codec ID/Info : UTF-8 Plain Text
Title : Eng forced
Language : English
Default : No
Forced : No

Text #4
ID : 7
Format : UTF-8
Codec ID : S_TEXT/UTF8
Codec ID/Info : UTF-8 Plain Text
Title : Eng full
Language : English
Default : No
Forced : No

Menu
00:00:00.000 : :Chapter 1
00:09:32.863 : :Chapter 2
00:13:13.083 : :Chapter 3
00:15:36.894 : :Chapter 4
00:19:35.340 : :Chapter 5
00:24:57.454 : :Chapter 6
00:34:36.991 : :Chapter 7
00:40:45.109 : :Chapter 8
00:43:59.303 : :Chapter 9
00:52:21.805 : :Chapter 10
00:58:33.927 : :Chapter 11
01:06:37.785 : :Chapter 12
01:11:43.257 : :Chapter 13
01:17:50.874 : :Chapter 14
01:22:39.621 : :Chapter 15
01:28:34.309 : :Chapter 16
Прежде чем скачивать фильм полностью, скачайте "сэмпл", и проверьте будет ли воспроизводится видео на вашем устройстве!

Q: Присутствуют ли артефакты на изображении?
A: Да, есть, и будут, какие настройки скритпа не вписывай они будут постоянно! Так как это дорисованные кадры из исходных + Видео ряд обработан фильтром "Sharp"

Q: У меня не запускается видео на компьютере?
A: Обновите кодеки. (попробуйте другие видео проигрыватели)

Q: У меня идет рассинхрон звука и видео?
A: Проблема в мощности компьютера. (возможно также нужно обновить кодеки)

Q: Что нужно для воспроизведения данного видео.
A: Что рекомендуется для воспроизведения мной:
Процессор: 4х ядерный
Видео карта: минимум 512Мб. И желательно включить обработку изображения с помощью видео карты. (Деинтерлейсинг, подавление блочности и т.д.)
ОЗУ: 2-4Гб

Проигрыватели.
MPC-HC (Media Player Classic - Home Cinema)
The KMPlayer (Korean Multimedia Player) (оптимальный вариант)
Mirillis Splash PRO (Если что то проигрыватель сам может преобразовывать видео вплоть до частоты кадров монитора. Или тех же 60fps.)
^Прежде чем отписывать комментарии по качеству, прочитайте спойлер!

pb.wtf



Скачать Живое через торрент http://img12.lostpic.net/2017/08/06/dcaa71196890fa4c751e9309b928cd74.png Скачать фильм Живое через торрент бесплантно в хорошем качестве Описание:Группа исследователей с международного космического корабля обнаруживает жизнь на Марсе. Они еще не подозревают, какие события ... 9.8 10 9
Info! Золотая раздача, скачанное не засчитывается.
Торрент: Зарегистрирован [2017-08-06 10:55] · скачан: 594 раз
Статус: √ проверено
Размер: 4.26 GB
Как cкачать? Как скачать Живое через торрент | UTorrent

% Раздел Тема Автор DL S | L
Фильмы 2017 [DVDrip, WEB-DLRip, HDrip] (DUB, MVO) [ 1.46 GB ] Живое / Life [2017 BDRip-AVC] potroks Скачать
1 | 0
Ultra HD (UHD: 2K, 4K, 8K) — видео сверхвысокой чёткости [ 46.57 GB ] Живое / Life [2017 UHD BDRemux 2160p] DUB+3xAVO [] bober100 Скачать
1 | 0
Фильмы (Blu-ray, BD-Remux, HDDVD) [ 24.45 GB ] Живое / Life [2017 BD Remux 1080p] [] DUB+2xAVO bober100 Скачать
1 | 0
Фильмы (Blu-ray, BD-Remux, HDDVD) [ 31.28 GB ] Живое / Life [2017 Blu-Ray EUR 1080p] DUB [] bober100 Скачать
1 | 0
Фильмы [HD 720p, 1080p] (Хороший звук DUB, MVO) [ 4.37 GB ] Живое / Life [2017 BDRip 720p] potroks Скачать
1 | 0
Фильмы 2017 [DVDrip, WEB-DLRip, HDrip] (DUB, MVO) [ 2.31 GB ] Живое / Life [2017 BDRip-AVC] [Д.Есарев] AVO+2xDUB [] bober100 Скачать
1 | 0
Фильмы 2017 [DVDrip, WEB-DLRip, HDrip] (DUB, MVO) [ 1.45 GB ] Живое / Life [2017 HDRip-AVC] DUB [] - ExKinoRay Enigma2010 Скачать
1 | 0

28-11-2019 20:33  

Отключить всю рекламу на сайте

06-08-2017 12:27 Живое Скачать торрент  

никто не в курсе в 3D ждать ? сорян если не в темуpb.wtf



21-08-2017 16:18 Живое Скачать торрент  

барахло.не тратьте время на это.pb.wtf



    Дорогой пользователь! Огромная просьба, поблагодарите релизера, оцените раздачу и оставьте свои комментарий, если Вы скачали Живое через торрент бесплатно! Внесите свою лепту в развитие PiratBit!
    Комментировать посты могут только пользователи прошедшие не сложную регистрацию
    Показать сообщения:    

    Живое через торрент
    Скачать бесплатно Живое
    Живое скачать торрент
    Живое смотреть онлайн
    Cкачать фильм Живое бесплатно
    Живое скачать торрент в хорошем качестве
    Живое смотреть онлайн бесплатно в хорошем качестве


    Вы не можете начинать темы
    Вы не можете отвечать на сообщения
    Вы не можете редактировать свои сообщения
    Вы не можете удалять свои сообщения
    Вы не можете голосовать в опросах
    Вы не можете прикреплять файлы к сообщениям
    Вы можете скачивать файлы