2 сезон

iTunes

1 сезон

1

iTunes

iTunes

iTunes

1 сезон

RePack

30

ИГРА 18+

pack

ВАЖНО

!!Акция!!

Alien_RageХит недели

RePack

MK11
pack

Забери бонус

RePack

jed

!!Акция!!

Alien_Rage

RePack

fifa19

RePack

Assassins Creed: Odyssey

RePack

NEED FOR SPEED™ PAYBACK

4 сезон

9 сезон

Бесстыжие 9 сезон

Все сериалы

все сериалы на PB.wtf

RePack

FAR CRY 5
  

Дзифт / Zift (Явор Гырдев) [2008, фильм-нуар, драма, криминал, BDRip 1080p by msltel] 2 x DVO pb.wtf

Дзифт через торрент pb.wtf

Размер: 9.23 GB | Добавлен: 3 года 2 мес. назад | Торрент скачан:66 раз
Скачать  

06-08-2017 11:57 Дзифт Скачать торрент  

Название: Дзифт
Оригинальное название: Zift
Год выпуска: 2008
Страна: Болгария
Жанр: фильм-нуар, драма, криминал
Продолжительность: 01:34:40
Перевод: профессиональный двухголосый

Режиссер: Явор Гырдев
В ролях: Захари Бахаров, Таня Илиева, Владимир Пенев, Димо Алексиев, Цветан Алексиев, Антони Агиров, Гергана Арнаудова, Благовест Благоев, Цветан Дмитров, Сава Драгунчев

О фильме: Действие происходит в одну ночь, когда главный герой по кличке Мотылёк выпущен из тюрьмы на поруки. Он отсидел пятнадцать лет по ложному обвинению в убийстве в 1944 году, и, выйдя, очутился в новом мире — в Болгарии 60-х. Он кое-что ищет и пойдет на всё, чтобы найти это кое-что…



Качество: BDRip 1080p
Формат: MKV
Видео: MPEG-4 AVC, 11.8 Mбит/с, 1920x816
Аудио 1: русский, AC3, 192 kbps, 2 ch [профессиональный двухголосый, R5]
Аудио 2: русский, AC3, 448 kbps, 6 ch [профессиональный двухголосый]
Аудио 3: болгарский, DTS, 1509 kbps, 6 ch, 48 kHz [оригинал]
Субтитры 1: русские
Субтитры 2: английские
Имеются неименованные главы/чаптеры.
Общее
Уникальный идентификатор : 216334853390175855488484148253936621805 (0xA2C093C46B6F1992B158DDE4F48498ED)
Полное имя : D:\Video\Zift.2008.BDRip.1080p by msltel.mkv
Формат : Matroska
Версия формата : Version 4 / Version 2
Размер файла : 9,23 Гбайт
Продолжительность : 1 ч. 34 м.
Общий поток : 14,0 Мбит/сек
Название фильма : Rip by msltel
Дата кодирования : UTC 2017-08-06 09:56:49
Программа кодирования : mkvmerge v8.2.0 ('World of Adventure') 64bit
Библиотека кодирования : libebml v1.3.1 + libmatroska v1.4.2

Видео
Идентификатор : 1
Формат : AVC
Формат/Информация : Advanced Video Codec
Профиль формата : High@L4.1
Параметр CABAC формата : Да
Параметр ReFrames формата : 4 кадра
Идентификатор кодека : V_MPEG4/ISO/AVC
Продолжительность : 1 ч. 34 м.
Битрейт : 11,8 Мбит/сек
Ширина : 1920 пикселей
Высота : 816 пикселей
Соотношение сторон : 2,35:1
Режим частоты кадров : Постоянный
Частота кадров : 23,976 (24000/1001) кадра/сек
Цветовое пространство : YUV
Субдискретизация насыщенности : 4:2:0
Битовая глубина : 8 бит
Тип развёртки : Прогрессивная
Бит/(Пиксели*Кадры) : 0.314
Размер потока : 7,81 Гбайт (85%)
Библиотека кодирования : x264 core 146 r2538 121396c
Настройки программы : cabac=1 / ref=4 / deblock=1:-3:-2 / analyse=0x3:0x113 / me=umh / subme=11 / psy=1 / psy_rd=1.00:0.15 / mixed_ref=1 / me_range=32 / chroma_me=1 / trellis=2 / 8x8dct=1 / cqm=0 / deadzone=21,11 / fast_pskip=0 / chroma_qp_offset=-3 / threads=6 / lookahead_threads=1 / sliced_threads=0 / nr=0 / decimate=1 / interlaced=0 / bluray_compat=0 / constrained_intra=0 / bframes=14 / b_pyramid=2 / b_adapt=2 / b_bias=0 / direct=1 / weightb=1 / open_gop=0 / weightp=2 / keyint=230 / keyint_min=23 / scenecut=40 / intra_refresh=0 / rc_lookahead=40 / rc=crf / mbtree=0 / crf=18.5 / qcomp=0.60 / qpmin=0 / qpmax=69 / qpstep=4 / vbv_maxrate=62500 / vbv_bufsize=78125 / crf_max=0.0 / nal_hrd=none / filler=0 / ip_ratio=1.40 / pb_ratio=1.30 / aq=1:1.00
Язык : Bulgarian
Default : Да
Forced : Нет

Аудио #1
Идентификатор : 2
Формат : AC-3
Формат/Информация : Audio Coding 3
Параметр Endianness формата : Big
Идентификатор кодека : A_AC3
Продолжительность : 1 ч. 34 м.
Вид битрейта : Постоянный
Битрейт : 192 Кбит/сек
Каналы : 2 канала
Расположение каналов : Front: L R
Частота : 48,0 КГц
Частота кадров : 31,250 кадров/сек (1536 spf)
Битовая глубина : 16 бит
Метод сжатия : С потерями
Размер потока : 130 Мбайт (1%)
Заголовок : DVO (R5)
Язык : Russian
ServiceKind/String : Complete Main
Default : Да
Forced : Нет

Аудио #2
Идентификатор : 3
Формат : AC-3
Формат/Информация : Audio Coding 3
Параметр Endianness формата : Big
Идентификатор кодека : A_AC3
Продолжительность : 1 ч. 34 м.
Вид битрейта : Постоянный
Битрейт : 448 Кбит/сек
Каналы : 6 каналов
Расположение каналов : Front: L C R, Side: L R, LFE
Частота : 48,0 КГц
Частота кадров : 31,250 кадров/сек (1536 spf)
Битовая глубина : 16 бит
Метод сжатия : С потерями
Размер потока : 303 Мбайт (3%)
Заголовок : DVO
Язык : Russian
ServiceKind/String : Complete Main
Default : Нет
Forced : Нет

Аудио #3
Идентификатор : 4
Формат : DTS
Формат/Информация : Digital Theater Systems
Режим : 16
Параметр Endianness формата : Big
Идентификатор кодека : A_DTS
Продолжительность : 1 ч. 34 м.
Вид битрейта : Постоянный
Битрейт : 1509 Кбит/сек
Каналы : 6 каналов
Расположение каналов : Front: L C R, Side: L R, LFE
Частота : 48,0 КГц
Частота кадров : 93,750 кадра/сек (512 spf)
Битовая глубина : 24 бит
Метод сжатия : С потерями
Размер потока : 1022 Мбайт (11%)
Заголовок : original
Язык : Bulgarian
Default : Нет
Forced : Нет

Текст #1
Идентификатор : 5
Формат : UTF-8
Идентификатор кодека : S_TEXT/UTF8
Идентификатор кодека/Информация : UTF-8 Plain Text
Продолжительность : 1 ч. 29 м.
Битрейт : 73 бит/сек
ElementCount : 806
Размер потока : 48,3 Кбайт (0%)
Заголовок : русские (R5)
Язык : Russian
Default : Нет
Forced : Нет

Текст #2
Идентификатор : 6
Формат : UTF-8
Идентификатор кодека : S_TEXT/UTF8
Идентификатор кодека/Информация : UTF-8 Plain Text
Продолжительность : 1 ч. 29 м.
Битрейт : 47 бит/сек
ElementCount : 857
Размер потока : 31,3 Кбайт (0%)
Заголовок : английские
Язык : English
Default : Нет
Forced : Нет

Меню
00:00:00.000 : en:00:00:00.000
00:15:05.321 : en:00:15:05.321
00:30:38.795 : en:00:30:38.795
00:45:57.421 : en:00:45:57.421
00:59:30.776 : en:00:59:30.776
01:14:53.572 : en:01:14:53.572
pb.wtf



Скачать Дзифт через торрент http://s010.radikal.ru/i311/1708/29/580b89772a2f.jpg Скачать фильм Дзифт через торрент бесплантно в хорошем качестве О фильме: Действие происходит в одну ночь, когда главный герой по кличке Мотылёк выпущен из тюрьмы на поруки. Он отсидел пятнадцать лет по ... 7.6 10 5
Info! Золотая раздача, скачанное не засчитывается.
Торрент: Зарегистрирован [2017-08-06 11:57] · скачан: 66 раз
Статус: √ проверено
Размер: 9.23 GB
Как cкачать? Как скачать Дзифт через торрент | qTorrent

% Раздел Тема Автор DL S | L
Фильмы [HD 720p, 1080p] (Хороший звук DUB, MVO) [ 3.6 GB ] Дзифт / Zift [2008 фильм-нуар BDRip 720p by msltel] 2 x DVO msltel Скачать
1 | 0

28-11-2019 20:33  

Отключить всю рекламу на сайте

06-08-2017 12:43 Дзифт Скачать торрент  

как фильм? стоит время тратить?pb.wtf



    Дорогой пользователь! Огромная просьба, поблагодарите релизера, оцените раздачу и оставьте свои комментарий, если Вы скачали Дзифт через торрент бесплатно! Внесите свою лепту в развитие PiratBit!
    Комментировать посты могут только пользователи прошедшие не сложную регистрацию
    Показать сообщения:    

    Дзифт через торрент
    Скачать бесплатно Дзифт
    Дзифт скачать торрент
    Дзифт смотреть онлайн
    Cкачать фильм Дзифт бесплатно
    Дзифт скачать торрент в хорошем качестве
    Дзифт смотреть онлайн бесплатно в хорошем качестве


    Вы не можете начинать темы
    Вы не можете отвечать на сообщения
    Вы не можете редактировать свои сообщения
    Вы не можете удалять свои сообщения
    Вы не можете голосовать в опросах
    Вы не можете прикреплять файлы к сообщениям
    Вы можете скачивать файлы