Ссылка на приватное зеркало нашего сайта всего за 1$. Внимание количество ограничено!!!

2 сезон

iTunes

1 сезон

1

2 сезон

2 сезон

iTunes

1 сезон

RePack

30

Ultimate

ВАЖНО

ИГРА 18+

pack

RePack

MK11
pack

Забери бонус

RePack

jed

!!Акция!!

Alien_Rage

RePack

fifa19

RePack

Assassins Creed: Odyssey

RePack

NEED FOR SPEED™ PAYBACK

4 сезон

9 сезон

Бесстыжие 9 сезон

Все сериалы

все сериалы на PB.wtf

RePack

FAR CRY 5
  

Любой ценой / Hell or High Water (Дэвид Маккензи) [2016, Драма, криминал, BD Remux 1080p] [Лицензия] DUB+AVO pb.wtf

Любой ценой через торрент pb.wtf

Размер: 29.24 GB | Добавлен: 3 года 3 мес. назад | Торрент скачан:47 раз
Скачать  

06-08-2017 20:45 Любой ценой Скачать торрент  

Любой ценой / Hell or High WaterГод выпуска: 2016
Страна: США
Жанр: Драма, криминал
Продолжительность: 01:42:15

Перевод:

#1: Дублированный | Лицензия
#2: Авторский | А. Матвеев


Субтитры: Русские, английские

Режиссер: Дэвид Маккензи

rating

В ролях:

Джефф Бриджес, Крис Пайн, Бен Фостер, Джил Бирмингем, Дейл Дикки, Уильям Стерчи, Бак Тейлор, Кристин Берг, Кит Мэривезер, Жакмо Буззел

Описание:

Им нужно совсем немного. Каких-то пару тысяч долларов, чтоб выкупить закладную и переписать дом на детей. А значит, окрестным банкам не уйти от дерзких налетов двух отчаянных братьев. Старший - рассудителен, младший - горяч, но так или иначе, а на этом пути им придется столкнуться с рейнджером Гамильтоном! И хотя до пенсии ему пару недель, но если закон был нарушен, значит, нарушителям уже несдобровать. К тому же, в напарниках у Гамильтона - офицер-краснокожий...

Качество: BD Remux 1080p
Формат: MKV
Видео кодек: H.264
Аудио кодек: DTS-HD MA

Видео: MPEG-4 AVC, 1920x1080, 29.8 Mbit/s, 23.976 fps
Аудио#1: 48 kHz, DTS-HD MA, 5.1, 3934 Kbps | Дублированный |
Аудио#2: 48 kHz, DTS-HD MA, 5.1, 3611 Kbps | Авторский |
Аудио#3: 48 kHz, DTS-HD MA, 5.1, 3561 kbps | Оригинал |
скриншот   скриншот   скриншот   скриншот  скриншот  

Общее
Уникальный идентификатор : 217660881585846471293562456427808119187 (0xA3BFF60143A48183BEEBA3C5C0F75993)
Полное имя : F:VideoHell.or.High.Water.2016.DD.AVO.BDREMUX.1080p.ExKinoRay.mkv
Формат : Matroska
Версия формата : Version 4 / Version 2
Размер файла : 29,2 Гбайт
Продолжительность : 1 ч. 42 м.
Режим общего битрейта : Переменный
Общий поток : 40,9 Мбит/сек
Название фильма : Hell or High Water 2016 build by ***селезень***
Дата кодирования : UTC 2016-12-28 03:54:04
Программа кодирования : mkvmerge v8.3.0 ('Over the Horizon') 64bit
Библиотека кодирования : libebml v1.3.1 + libmatroska v1.4.2

Видео
Идентификатор : 1
Формат : AVC
Формат/Информация : Advanced Video Codec
Профиль формата : High@L4.1
Параметр CABAC формата : Да
Параметр ReFrames формата : 4 кадра
Идентификатор кодека : V_MPEG4/ISO/AVC
Продолжительность : 1 ч. 42 м.
Вид битрейта : Переменный
Битрейт : 29,8 Мбит/сек
Максимальный битрейт : 35,0 Мбит/сек
Ширина : 1920 пикселей
Высота : 1080 пикселей
Соотношение сторон : 16:9
Режим частоты кадров : Постоянный
Частота кадров : 23,976 (24000/1001) кадра/сек
Стандарт вещания : NTSC
Цветовое пространство : YUV
Субдискретизация насыщенности : 4:2:0
Битовая глубина : 8 бит
Тип развёртки : Прогрессивная
Бит/(Пиксели*Кадры) : 0.600
Размер потока : 21,3 Гбайт (73%)
Заголовок : Hell or High Water 2016 build by ***селезень***
Язык : English
Default : Да
Forced : Нет
Цветовой диапазон : Limited
Основные цвета : BT.709
Характеристики трансфера : BT.709
Коэффициенты матрицы : BT.709

Аудио #1
Идентификатор : 2
Формат : DTS
Формат/Информация : Digital Theater Systems
Профиль формата : MA / Core
Режим : 16
Параметр Endianness формата : Big
Идентификатор кодека : A_DTS
Продолжительность : 1 ч. 42 м.
Вид битрейта : Переменный / Постоянный
Битрейт : 3934 Кбит/сек / 1509 Кбит/сек
Каналы : 6 каналов
Расположение каналов : Front: L C R, Side: L R, LFE
Частота : 48,0 КГц
Частота кадров : 93,750 кадра/сек (512 spf)
Битовая глубина : 24 бит
Метод сжатия : Без потерь / Lossy
Задержка видео : 21 мс.
Размер потока : 2,81 Гбайт (10%)
Заголовок : Dub [License]
Язык : Russian
Default : Да
Forced : Нет

Аудио #2
Идентификатор : 3
Формат : DTS
Формат/Информация : Digital Theater Systems
Профиль формата : MA / Core
Режим : 16
Параметр Endianness формата : Big
Идентификатор кодека : A_DTS
Продолжительность : 1 ч. 42 м.
Вид битрейта : Переменный / Постоянный
Битрейт : 3611 Кбит/сек / 1509 Кбит/сек
Каналы : 6 каналов
Расположение каналов : Front: L C R, Side: L R, LFE
Частота : 48,0 КГц
Частота кадров : 93,750 кадра/сек (512 spf)
Битовая глубина : 24 бит
Метод сжатия : Без потерь / Lossy
Размер потока : 2,58 Гбайт (9%)
Заголовок : AVO [Matveev]
Язык : Russian
Default : Нет
Forced : Нет

Аудио #3
Идентификатор : 4
Формат : DTS
Формат/Информация : Digital Theater Systems
Профиль формата : MA / Core
Режим : 16
Параметр Endianness формата : Big
Идентификатор кодека : A_DTS
Продолжительность : 1 ч. 42 м.
Вид битрейта : Переменный / Постоянный
Битрейт : 3561 Кбит/сек / 1509 Кбит/сек
Каналы : 6 каналов
Расположение каналов : Front: L C R, Side: L R, LFE
Частота : 48,0 КГц
Частота кадров : 93,750 кадра/сек (512 spf)
Битовая глубина : 24 бит
Метод сжатия : Без потерь / Lossy
Размер потока : 2,54 Гбайт (9%)
Заголовок : Original
Язык : English
Default : Нет
Forced : Нет

Текст #1
Идентификатор : 5
Формат : UTF-8
Идентификатор кодека : S_TEXT/UTF8
Идентификатор кодека/Информация : UTF-8 Plain Text
Продолжительность : 43 м. 22 с.
Битрейт : 2 бит/сек
Count of elements : 14
Размер потока : 938 байт (0%)
Заголовок : Forced [Matveev]
Язык : Russian
Default : Да
Forced : Нет

Текст #2
Идентификатор : 6
Формат : UTF-8
Идентификатор кодека : S_TEXT/UTF8
Идентификатор кодека/Информация : UTF-8 Plain Text
Продолжительность : 1 ч. 38 м.
Битрейт : 84 бит/сек
Count of elements : 805
Размер потока : 61,4 Кбайт (0%)
Заголовок : Full [Matveev]
Язык : Russian
Default : Нет
Forced : Нет

Текст #3
Идентификатор : 7
Формат : UTF-8
Идентификатор кодека : S_TEXT/UTF8
Идентификатор кодека/Информация : UTF-8 Plain Text
Продолжительность : 1 ч. 34 м.
Битрейт : 52 бит/сек
Count of elements : 1167
Размер потока : 36,7 Кбайт (0%)
Заголовок : Full
Язык : English
Default : Нет
Forced : Нет

Меню
00:00:00.000 : en:00:00:00.000
00:09:37.243 : en:00:09:37.243
00:13:50.455 : en:00:13:50.455
00:22:14.583 : en:00:22:14.583
00:28:40.385 : en:00:28:40.385
00:31:54.329 : en:00:31:54.329
00:40:49.614 : en:00:40:49.614
00:46:49.932 : en:00:46:49.932
00:55:45.092 : en:00:55:45.092
01:02:06.473 : en:01:02:06.473
01:09:52.897 : en:01:09:52.897
01:14:04.649 : en:01:14:04.649
01:20:56.226 : en:01:20:56.226
01:29:09.135 : en:01:29:09.135
01:35:03.865 : en:01:35:03.865
01:38:28.277 : en:01:38:28.277

pb.wtf



Скачать Любой ценой через торрент http://s48.radikal.ru/i119/1611/6d/84b4ec12a9f5.jpg Скачать фильм Любой ценой через торрент бесплантно в хорошем качестве Описание: Им нужно совсем немного. Каких-то пару тысяч долларов, чтоб выкупить закладную и переписать дом на детей. А значит, окрестным ... 10 10 6
Info! Золотая раздача, скачанное не засчитывается.
Торрент: Зарегистрирован [2017-08-06 20:45] · скачан: 47 раз
Статус: √ проверено
Размер: 29.24 GB
Как cкачать? Как скачать Любой ценой через торрент | qTorrent

% Раздел Тема Автор DL S | L
Ultra HD (UHD: 2K, 4K, 8K) — видео сверхвысокой чёткости [ 64.61 GB ] Любой ценой / Hell or High Water [2016 UHD BDRemux 2160p] 3xAVO+DUB [] bober100 Скачать
1 | 0
Фильмы [HD 720p, 1080p] (Хороший звук DUB, MVO) [ 7.09 GB ] Любой ценой / Hell or High Water [2016 BDRip 720p от _denis_100 | NNNB] DUB + 3xAVO + Original + Sub _denis_100 Скачать
1 | 0
Фильмы [HD 720p, 1080p] (Хороший звук DUB, MVO) [ 5.76 GB ] Любой ценой / Hell or High Water [2016 BDRip 720p] DUB AVO potroks Скачать
1 | 0

28-11-2019 20:33  

Отключить всю рекламу на сайте

    Дорогой пользователь! Огромная просьба, поблагодарите релизера, оцените раздачу и оставьте свои комментарий, если Вы скачали Любой ценой через торрент бесплатно! Внесите свою лепту в развитие PiratBit!
    Комментировать посты могут только пользователи прошедшие не сложную регистрацию
    Показать сообщения:    

    Любой ценой через торрент
    Скачать бесплатно Любой ценой
    Любой ценой скачать торрент
    Любой ценой смотреть онлайн
    Cкачать фильм Любой ценой бесплатно
    Любой ценой скачать торрент в хорошем качестве
    Любой ценой смотреть онлайн бесплатно в хорошем качестве


    Вы не можете начинать темы
    Вы не можете отвечать на сообщения
    Вы не можете редактировать свои сообщения
    Вы не можете удалять свои сообщения
    Вы не можете голосовать в опросах
    Вы не можете прикреплять файлы к сообщениям
    Вы можете скачивать файлы