Ссылка на приватное зеркало нашего сайта всего за 1$. Внимание количество ограничено!!!

2 сезон

iTunes

1 сезон

1

2 сезон

2 сезон

iTunes

1 сезон

RePack

30

Новинка

ВАЖНО

ИГРА 18+

pack

RePack

MK11
pack

Забери бонус

RePack

jed

!!Акция!!

Alien_Rage

RePack

fifa19

RePack

Assassins Creed: Odyssey

RePack

NEED FOR SPEED™ PAYBACK

4 сезон

9 сезон

Бесстыжие 9 сезон

Все сериалы

все сериалы на PB.wtf

RePack

FAR CRY 5
  

Наваждение / Unforgettable (Дениз Ди Нови) [2017, Триллер, драма, BD Remux 1080p] DUB [Лицензия] pb.wtf

Наваждение через торрент pb.wtf

Размер: 25.77 GB | Добавлен: 3 года 3 мес. назад | Торрент скачан:11 раз
Скачать  

07-08-2017 13:07 Наваждение Скачать торрент  

Наваждение / UnforgettableГод выпуска: 2017
Страна: США
Жанр: Триллер, драма
Продолжительность: 01:40:08
Перевод: Дублированный | Лицензия
Субтитры: Русские (forced, full), английские (full, SDH, SDH Colored)

Режиссер: Дениз Ди Нови

rating

В ролях:

Розарио Доусон, Кэтрин Хейгл, Джофф Стульц, Шерил Лэдд, Уитни Каммингс, Роберт Уиздом, Саймон Кассианидес, Джэйсон Блэр, Изабелла Кай Райс, Алекс Кихано

Описание:

Тесса Конновер (Кэтрин Хейгл) с трудом переживает конец своего некогда счастливого брака. Особенно тяжело ей принять, что бывший муж Дэвид (Джефф Сталтс) движется по жизни дальше и уже нашел своё счастье с новой возлюбленной Джулией Бэнкс (Розарио Доусон) – приведя девушку не только в их некогда общий дом, но и в жизнь их дочери Лилли (Изабелла Райс). Пытаясь освоиться в своей новой роли в качестве жены и мачехи, Джулия считает, что наконец-то встретила мужчину своей мечты, человека, который может помочь ей оставить ее собственное тяжелое прошлое позади. Но ревность Тессы вскоре принимает патологический характер, и она ни перед чем не остановится, чтобы превратить мечту Джулии в настоящий кошмар. Психологический триллер «Незабываемое» стал режиссерским дебютом продюсера Дениз Ди Нови, принимающей непосредственной участие в создании большого количества кинохитов, а также неоднократно сотрудничавшей с мрачным сказочником Голливуда Тимом Бёртоном.

Качество: BD Remux 1080p
Формат: MKV
Видео кодек: H.264
Аудио кодек: AC3/

Видео: MPEG-4 AVC, 1920x1080, 32.8 Mbit/s, 23.976 fps
Аудио#1: 48 kHz, AC3, 5.1, 640 Kbps | Дублированный | RUS |
Аудио#2: 48 kHz, DTS-HD MA, 5.1, 3206 Kbps | Оригинал | ENG |
Аудио#3: 48 kHz, AC3, 2.0, 192 Kbps | Commentary by Director Denise Di Novi | ENG |
скриншот   скриншот  скриншот  скриншот  скриншот  

General
Unique ID : 219185651203011726065080105365434568230 (0xA4E59EF382ED81C18E1B284748788E26)
Complete name : F:VideoUnforgettable.2017.Lic.BDREMUX.1080p.ExKinoRay.mkv
Format : Matroska
Format version : Version 4 / Version 2
File size : 25.8 GiB
Duration : 1 h 40 min
Overall bit rate mode : Variable
Overall bit rate : 36.8 Mb/s
Encoded date : UTC 2017-07-28 17:13:41
Writing application : mkvmerge v14.0.0 ('Flow') 64bit
Writing library : libebml v1.3.4 + libmatroska v1.4.5

Video
ID : 1
Format : AVC
Format/Info : Advanced Video Codec
Format profile : High@L4.1
Format settings, CABAC : Yes
Format settings, ReFrames : 4 frames
Format settings, GOP : M=3, N=12
Codec ID : V_MPEG4/ISO/AVC
Duration : 1 h 40 min
Bit rate mode : Variable
Bit rate : 32.8 Mb/s
Maximum bit rate : 37.0 Mb/s
Width : 1 920 pixels
Height : 1 080 pixels
Display aspect ratio : 16:9
Frame rate mode : Constant
Frame rate : 23.976 (24000/1001) FPS
Color space : YUV
Chroma subsampling : 4:2:0
Bit depth : 8 bits
Scan type : Progressive
Bits/(Pixel*Frame) : 0.660
Stream size : 22.9 GiB (89%)
Language : English
Default : Yes
Forced : No

Audio #1
ID : 2
Format : AC-3
Format/Info : Audio Coding 3
Format settings, Endianness : Big
Codec ID : A_AC3
Duration : 1 h 40 min
Bit rate mode : Constant
Bit rate : 640 kb/s
Channel(s) : 6 channels
Channel positions : Front: L C R, Side: L R, LFE
Sampling rate : 48.0 kHz
Frame rate : 31.250 FPS (1536 spf)
Bit depth : 16 bits
Compression mode : Lossy
Stream size : 458 MiB (2%)
Title : Dub [License]
Language : Russian
Service kind : Complete Main
Default : Yes
Forced : No

Audio #2
ID : 3
Format : DTS
Format/Info : Digital Theater Systems
Format profile : MA / Core
Mode : 16
Format settings, Endianness : Big
Codec ID : A_DTS
Duration : 1 h 40 min
Bit rate mode : Variable / Constant
Bit rate : 3 206 kb/s / 1 509 kb/s
Channel(s) : 6 channels
Channel positions : Front: L C R, Side: L R, LFE
Sampling rate : 48.0 kHz
Frame rate : 93.750 FPS (512 spf)
Bit depth : 24 bits
Compression mode : Lossless / Lossy
Stream size : 2.24 GiB (9%)
Title : Original
Language : English
Default : No
Forced : No

Audio #3
ID : 4
Format : AC-3
Format/Info : Audio Coding 3
Mode : Dolby Digital
Format settings, Endianness : Big
Codec ID : A_AC3
Duration : 1 h 40 min
Bit rate mode : Constant
Bit rate : 192 kb/s
Channel(s) : 2 channels
Channel positions : Front: L R
Sampling rate : 48.0 kHz
Frame rate : 31.250 FPS (1536 spf)
Bit depth : 16 bits
Compression mode : Lossy
Stream size : 138 MiB (1%)
Title : Commentary by Director Denise Di Novi
Language : English
Service kind : Complete Main
Default : No
Forced : No

Text #1
ID : 5
Format : UTF-8
Codec ID : S_TEXT/UTF8
Codec ID/Info : UTF-8 Plain Text
Duration : 1 h 34 min
Bit rate : 5 b/s
Count of elements : 66
Stream size : 3.48 KiB (0%)
Title : Forced
Language : Russian
Default : Yes
Forced : No

Text #2
ID : 6
Format : UTF-8
Codec ID : S_TEXT/UTF8
Codec ID/Info : UTF-8 Plain Text
Duration : 1 h 39 min
Bit rate : 75 b/s
Count of elements : 1196
Stream size : 55.0 KiB (0%)
Title : Full
Language : Russian
Default : No
Forced : No

Text #3
ID : 7
Format : UTF-8
Codec ID : S_TEXT/UTF8
Codec ID/Info : UTF-8 Plain Text
Duration : 1 h 39 min
Bit rate : 50 b/s
Count of elements : 1333
Stream size : 36.8 KiB (0%)
Title : SDH
Language : English
Default : No
Forced : No

Text #4
ID : 8
Format : UTF-8
Codec ID : S_TEXT/UTF8
Codec ID/Info : UTF-8 Plain Text
Duration : 1 h 37 min
Bit rate : 67 b/s
Count of elements : 1333
Stream size : 48.4 KiB (0%)
Title : SDH (Colored)
Language : English
Default : No
Forced : No

Menu
00:00:00.000 : en:00:00:00.000
00:09:57.055 : en:00:09:57.055
00:18:48.044 : en:00:18:48.044
00:28:13.984 : en:00:28:13.984
00:36:48.832 : en:00:36:48.832
00:47:02.319 : en:00:47:02.319
00:56:55.370 : en:00:56:55.370
01:08:42.160 : en:01:08:42.160
01:17:40.322 : en:01:17:40.322
01:26:15.629 : en:01:26:15.629
01:37:16.164 : en:01:37:16.164

pb.wtf



Скачать Наваждение через торрент http://s009.radikal.ru/i308/1707/db/f04d41f8dce5.jpg Скачать фильм Наваждение через торрент бесплантно в хорошем качестве Описание: Тесса Конновер (Кэтрин Хейгл) с трудом переживает конец своего некогда счастливого брака. Особенно тяжело ей принять, что бывший ... 10 10 4
Торрент: Зарегистрирован [2017-08-07 13:07] · скачан: 11 раз
Статус: √ проверено
Размер: 25.77 GB
Как cкачать? Как скачать Наваждение через торрент | qTorrent

% Раздел Тема Автор DL S | L
T Релизы по Парсеру [Игры, Сериалы и Фильмы и другое...] [ 30.78 GB ] Наваждение / Unforgettable [2017 Blu-Ray 1080p] DUB [ CEE] bober100 Скачать
1 | 0
Фильмы [HD 720p, 1080p] (Хороший звук DUB, MVO) [ 4.37 GB ] Наваждение / Unforgettable [2017 BDRip 720p] potroks Скачать
1 | 0
Фильмы 2017 [DVDrip, WEB-DLRip, HDrip] (DUB, MVO) [ 1.46 GB ] Наваждение / Unforgettable [2017 BDRip] - [] Twi7ter Скачать
1 | 0
Фильмы 2017 [DVDrip, WEB-DLRip, HDrip] (DUB, MVO) [ 2.02 GB ] Наваждение / Unforgettable [2017 BDRip-AVC] DUB [] bober100 Скачать
1 | 0
Фильмы без перевода [ 25.66 GB ] Наваждение / Unforgettable [2017 BDRemux] [Оригинал-ENG] smaster Скачать
1 | 0
Фильмы [HD 720p, 1080p] (Хороший звук DUB, MVO) [ 13.29 GB ] Наваждение / Unforgettable [2017 BDRip 1080p] - -Lexx- Скачать
1 | 0

28-11-2019 20:33  

Отключить всю рекламу на сайте

    Дорогой пользователь! Огромная просьба, поблагодарите релизера, оцените раздачу и оставьте свои комментарий, если Вы скачали Наваждение через торрент бесплатно! Внесите свою лепту в развитие PiratBit!
    Комментировать посты могут только пользователи прошедшие не сложную регистрацию
    Показать сообщения:    

    Наваждение через торрент
    Скачать бесплатно Наваждение
    Наваждение скачать торрент
    Наваждение смотреть онлайн
    Cкачать фильм Наваждение бесплатно
    Наваждение скачать торрент в хорошем качестве
    Наваждение смотреть онлайн бесплатно в хорошем качестве


    Вы не можете начинать темы
    Вы не можете отвечать на сообщения
    Вы не можете редактировать свои сообщения
    Вы не можете удалять свои сообщения
    Вы не можете голосовать в опросах
    Вы не можете прикреплять файлы к сообщениям
    Вы можете скачивать файлы