Ссылка на приватное зеркало нашего сайта всего за 1$. Внимание количество ограничено!!!

2 сезон

iTunes

1 сезон

1

2 сезон

2 сезон

iTunes

1 сезон

RePack

30

Новинка

ВАЖНО

ИГРА 18+

pack

RePack

MK11
pack

Забери бонус

RePack

jed

!!Акция!!

Alien_Rage

RePack

fifa19

RePack

Assassins Creed: Odyssey

RePack

NEED FOR SPEED™ PAYBACK

4 сезон

9 сезон

Бесстыжие 9 сезон

Все сериалы

все сериалы на PB.wtf

RePack

FAR CRY 5
  

Хроники мстителя / Vigilante Diaries (Кристиан Сесма) [2016, боевик, BD Remux 1080p] DUB [iTunes] pb.wtf

Хроники мстителя через торрент pb.wtf

Размер: 19.03 GB | Добавлен: 3 года 3 мес. назад | Торрент скачан:11 раз
Скачать  

07-08-2017 17:43 Хроники мстителя Скачать торрент  

Хроники мстителя / Vigilante DiariesГод выпуска: 2016
Страна: США
Жанр: боевик
Продолжительность: 01:47:43
Перевод: Дублированный | iTunes
Субтитры: английские

Режиссер: Кристиан Сесма

rating

В ролях:

Джейсон Мьюз, Куинтон Джексон, Пол Слоун, Кевин Л. Уокер, Майкл Джей Уайт, Майкл Мэдсен, Майк Хаттон, Джеймс Руссо, Арман Ншанян, Сальвадор Герерро мл.

Описание:

Когда Мститель устраняет бандита, широко известного в криминальных кругах, начинается снятая в прямом эфире кровавая бойня с участием армянской мафии, мексиканских нарко-картелей, команды бывших спецназовцев и агентов международных спецслужб, проводящих свои тайные операции… Напряженный приключенческий фильм с участием героев 90-х и армянской мафии не даст вам заскучать.

Качество: BD Remux 1080p
Формат: MKV
Видео кодек: H.264
Аудио кодек: AC3/TrueHD

Видео: 1920x1080, 21.2 Mbit/s, 23.976 fps
Аудио#1: 48 kHz, AC3, 5.1, 384 Kbps | Дублированный | iTunes |
Аудио#2: 48 kHz, TrueHD, 5.1, 3176 kbps | Оригинал |
скриншот   скриншот   скриншот   скриншот  

General
Unique ID : 241496344785486934021020526650563828851 (0xB5AE81127B1040BAA86B03A1483D1C73)
Complete name : H:VideoVigilante.Diaries.2016.D.BDREMUX.1080p.ExKinoRay.mkv
Format : Matroska
Format version : Version 4 / Version 2
File size : 19.0 GiB
Duration : 2 h 3 min
Overall bit rate mode : Variable
Overall bit rate : 22.0 Mb/s
Movie name : build by ***селезень***
Encoded date : UTC 2016-10-30 05:59:34
Writing application : mkvmerge v8.3.0 ('Over the Horizon') 64bit
Writing library : libebml v1.3.1 + libmatroska v1.4.2

Video
ID : 1
Format : AVC
Format/Info : Advanced Video Codec
Format profile : High@L4.1
Format settings, CABAC : Yes
Format settings, ReFrames : 4 frames
Codec ID : V_MPEG4/ISO/AVC
Duration : 1 h 47 min
Bit rate mode : Variable
Bit rate : 21.2 Mb/s
Maximum bit rate : 31.0 Mb/s
Width : 1 920 pixels
Height : 1 080 pixels
Display aspect ratio : 16:9
Frame rate mode : Constant
Frame rate : 23.976 (24000/1001) FPS
Color space : YUV
Chroma subsampling : 4:2:0
Bit depth : 8 bits
Scan type : Progressive
Bits/(Pixel*Frame) : 0.426
Stream size : 15.9 GiB (84%)
Title : build by ***селезень***
Language : English
Default : Yes
Forced : No

Audio #1
ID : 2
Format : AC-3
Format/Info : Audio Coding 3
Mode extension : CM (complete main)
Format settings, Endianness : Big
Codec ID : A_AC3
Duration : 1 h 47 min
Bit rate mode : Constant
Bit rate : 384 kb/s
Channel(s) : 6 channels
Channel positions : Front: L C R, Side: L R, LFE
Sampling rate : 48.0 kHz
Frame rate : 31.250 FPS (1536 spf)
Compression mode : Lossy
Stream size : 296 MiB (2%)
Title : iTunes
Language : Russian
Default : Yes
Forced : No

Audio #2
ID : 3
Format : TrueHD
Codec ID : A_TRUEHD
Duration : 2 h 3 min
Bit rate mode : Variable
Bit rate : 3 176 kb/s
Maximum bit rate : 5 877 kb/s
Channel(s) : 6 channels
Channel positions : Front: L C R, Side: L R, LFE
Sampling rate : 48.0 kHz
Frame rate : 1 200.000 FPS (40 spf)
Compression mode : Lossless
Stream size : 2.75 GiB (14%)
Title : Original
Language : English
Default : No
Forced : No

Text #1
ID : 4
Format : UTF-8
Codec ID : S_TEXT/UTF8
Codec ID/Info : UTF-8 Plain Text
Duration : 1 h 46 min
Bit rate : 51 b/s
Count of elements : 1221
Stream size : 40.3 KiB (0%)
Title : Full
Language : English
Default : No
Forced : No

Text #2
ID : 5
Format : UTF-8
Codec ID : S_TEXT/UTF8
Codec ID/Info : UTF-8 Plain Text
Duration : 1 h 47 min
Bit rate : 56 b/s
Count of elements : 1393
Stream size : 44.2 KiB (0%)
Title : SDH
Language : English
Default : No
Forced : No

Menu
00:00:00.000 : en:Chapter 1
00:06:45.614 : en:Chapter 2
00:13:31.144 : en:Chapter 3
00:25:52.259 : en:Chapter 4
00:36:45.412 : en:Chapter 5
00:47:00.651 : en:Chapter 6
00:52:48.374 : en:Chapter 7
00:59:03.248 : en:Chapter 8
01:05:51.281 : en:Chapter 9
01:23:02.144 : en:Chapter 10
01:37:22.336 : en:Chapter 11
01:41:55.276 : en:Chapter 12

pb.wtf



Скачать Хроники мстителя через торрент http://s018.radikal.ru/i503/1610/a3/3bc26859d86a.jpg Скачать фильм Хроники мстителя через торрент бесплантно в хорошем качестве Описание: Когда Мститель устраняет бандита, широко известного в криминальных кругах, начинается снятая в прямом эфире кровавая бойня с ... 10 10 7
Info! Золотая раздача, скачанное не засчитывается.
Торрент: Зарегистрирован [2017-08-07 17:43] · скачан: 11 раз
Статус: √ проверено
Размер: 19.03 GB
Как cкачать? Как скачать Хроники мстителя через торрент | qTorrent

% Раздел Тема Автор DL S | L
Фильмы 2016 [DVDrip, WEB-DLRip, HDrip] (DUB, MVO) [ 2.06 GB ] Хроники мстителя / Vigilante Diaries [2016 BDRip PsYcho Скачать
1 | 0
Фильмы 2016 [DVDrip, WEB-DLRip, HDrip] (DUB, MVO) [ 746 MB ] Хроники мстителя / Vigilante Diaries [2016 BDRip] bober100 Скачать
1 | 0
Фильмы 2016 [DVDrip, WEB-DLRip, HDrip] (DUB, MVO) [ 2.17 GB ] Хроники мстителя / Vigilante Diaries [2016 HDRip ""] coc900 Скачать
1 | 0
Фильмы 2016 [DVDrip, WEB-DLRip, HDrip] (DUB, MVO) [ 1.37 GB ] Хроники мстителя / Vigilante Diaries [2016 HDRip / ] Ворон Скачать
1 | 0

28-11-2019 20:33  

Отключить всю рекламу на сайте

    Дорогой пользователь! Огромная просьба, поблагодарите релизера, оцените раздачу и оставьте свои комментарий, если Вы скачали Хроники мстителя через торрент бесплатно! Внесите свою лепту в развитие PiratBit!
    Комментировать посты могут только пользователи прошедшие не сложную регистрацию
    Показать сообщения:    

    Хроники мстителя через торрент
    Скачать бесплатно Хроники мстителя
    Хроники мстителя скачать торрент
    Хроники мстителя смотреть онлайн
    Cкачать фильм Хроники мстителя бесплатно
    Хроники мстителя скачать торрент в хорошем качестве
    Хроники мстителя смотреть онлайн бесплатно в хорошем качестве


    Вы не можете начинать темы
    Вы не можете отвечать на сообщения
    Вы не можете редактировать свои сообщения
    Вы не можете удалять свои сообщения
    Вы не можете голосовать в опросах
    Вы не можете прикреплять файлы к сообщениям
    Вы можете скачивать файлы