Ссылка на приватное зеркало нашего сайта всего за 1$. Внимание количество ограничено!!!

2 сезон

iTunes

1 сезон

1

2 сезон

2 сезон

iTunes

1 сезон

RePack

30

Новинка

ВАЖНО

ИГРА 18+

pack

RePack

MK11
pack

Забери бонус

RePack

jed

!!Акция!!

Alien_Rage

RePack

fifa19

RePack

Assassins Creed: Odyssey

RePack

NEED FOR SPEED™ PAYBACK

4 сезон

9 сезон

Бесстыжие 9 сезон

Все сериалы

все сериалы на PB.wtf

RePack

FAR CRY 5
  

Его собачье дело / Once Upon a Time in Venice (Марк Каллен) [2017, боевик, триллер, комедия, BD Remux 1080p] DUB (rus)+MVO (ukr) [iTunes] pb.wtf

Его собачье дело через торрент pb.wtf

Размер: 17.56 GB | Добавлен: 3 года 3 мес. назад | Торрент скачан:79 раз
Скачать  

08-08-2017 08:02 Его собачье дело Скачать торрент  

Его собачье дело / Once Upon a Time in VeniceГод выпуска: 2017
Страна: США
Жанр: боевик, триллер, комедия
Продолжительность: 01:33:53
Перевод: Дубляж iTunes
Субтитры: английские

Режиссер: Марк Каллен

rating

В ролях:

Брюс Уиллис, Джейсон Момоа, Джон Гудман, Томас Миддлдитч, Фамке Янссен, Адам Голдберг, Элизабет Рём, Стефани Сигман, Вуд Харрис, Эмили Робинсон

Описание:

Действие фильма будет происходить в Лос-Анджелесе. Профессиональная и личная жизнь главного героя пошла под откос, когда его пса Бадди похищает группа бандитов. Чтобы вернуть любимого питомца, частный детектив соглашается выполнять поручения преступников. Но пока он занят возвращением четвероногого друга, по его следам идут враги, среди которых двое суровых парней из Самоа, подручные ростовщика, которому герой задолжал деньги.

Качество: BD Remux 1080p
Формат: MKV
Видео кодек: H.264
Аудио кодек: AC3/DTS-HD MA

Видео: AVC/H.264, 1920x1080, ~24 Mbps
Аудио#1: AC3, 6 ch, 384 kbps - Русский (DUB, iTunes)
Аудио#2: AC3, 6 ch, 384 kbps - Украинский (MVO, iTunes)
Аудио#3: DTS-HD MA, 6 ch, ~2048 kbps / 1509 kbps - Английский (Оригинал)
скриншот   скриншот   скриншот   скриншот  

General
Format : Matroska
Format version : Version 4 / Version 2
File size : 17.6 GiB
Duration : 1 h 33 min
Overall bit rate mode : Variable
Overall bit rate : 26.8 Mb/s
Movie name : Once Upon a Time in Venice (2017). NNM Club Video
Encoded date : UTC 2017-07-06 09:11:32
Writing application : mkvmerge v13.0.0 ('The Juggler') 64bit
Writing library : libebml v1.3.4 + libmatroska v1.4.5
Attachments : poster.jpg

Video
ID : 1
Format : AVC
Format/Info : Advanced Video Codec
Format profile : High@L4.1
Format settings, CABAC : Yes
Format settings, ReFrames : 4 frames
Codec ID : V_MPEG4/ISO/AVC
Duration : 1 h 33 min
Bit rate mode : Variable
Bit rate : 24.0 Mb/s
Maximum bit rate : 35.0 Mb/s
Width : 1 920 pixels
Height : 1 080 pixels
Display aspect ratio : 16:9
Frame rate mode : Constant
Frame rate : 24.000 FPS
Standard : NTSC
Color space : YUV
Chroma subsampling : 4:2:0
Bit depth : 8 bits
Scan type : Progressive
Bits/(Pixel*Frame) : 0.482
Stream size : 15.7 GiB (90%)
Language : English
Default : Yes
Forced : No
Color range : Limited
Color primaries : BT.709
Transfer characteristics : BT.709
Matrix coefficients : BT.709

Audio #1
ID : 2
Format : AC-3
Format/Info : Audio Coding 3
Format settings, Endianness : Big
Codec ID : A_AC3
Duration : 1 h 33 min
Bit rate mode : Constant
Bit rate : 384 kb/s
Channel(s) : 6 channels
Channel positions : Front: L C R, Side: L R, LFE
Sampling rate : 48.0 kHz
Frame rate : 31.250 FPS (1536 spf)
Bit depth : 16 bits
Compression mode : Lossy
Stream size : 258 MiB (1%)
Title : DUB (iTunes)
Language : Russian
Service kind : Complete Main
Default : Yes
Forced : No

Audio #2
ID : 3
Format : AC-3
Format/Info : Audio Coding 3
Format settings, Endianness : Big
Codec ID : A_AC3
Duration : 1 h 33 min
Bit rate mode : Constant
Bit rate : 384 kb/s
Channel(s) : 6 channels
Channel positions : Front: L C R, Side: L R, LFE
Sampling rate : 48.0 kHz
Frame rate : 31.250 FPS (1536 spf)
Bit depth : 16 bits
Compression mode : Lossy
Stream size : 258 MiB (1%)
Title : MVO (iTunes)
Language : Ukrainian
Service kind : Complete Main
Default : No
Forced : No

Audio #3
ID : 4
Format : DTS
Format/Info : Digital Theater Systems
Format profile : MA / Core
Mode : 16
Format settings, Endianness : Big
Codec ID : A_DTS
Duration : 1 h 33 min
Bit rate mode : Variable / Constant
Bit rate : 2 048 kb/s / 1 509 kb/s
Channel(s) : 6 channels
Channel positions : Front: L C R, Side: L R, LFE
Sampling rate : 48.0 kHz
Frame rate : 93.750 FPS (512 spf)
Bit depth : 16 bits
Compression mode : Lossless / Lossy
Stream size : 1.32 GiB (8%)
Language : English
Default : No
Forced : No

Text
ID : 5
Format : UTF-8
Codec ID : S_TEXT/UTF8
Codec ID/Info : UTF-8 Plain Text
Duration : 1 h 30 min
Bit rate : 71 b/s
Count of elements : 1426
Stream size : 47.1 KiB (0%)
Language : English
Default : Yes
Forced : No

Menu
00:00:00.000 : en:Chapter 1
00:18:30.833 : en:Chapter 2
00:31:41.875 : en:Chapter 3
00:46:30.333 : en:Chapter 4
01:03:02.500 : en:Chapter 5
01:18:44.791 : en:Chapter 6

pb.wtf



Скачать Его собачье дело через торрент http://s016.radikal.ru/i335/1706/9c/7929885ba022.jpg Скачать фильм Его собачье дело через торрент бесплантно в хорошем качестве Описание: Действие фильма будет происходить в Лос-Анджелесе. Профессиональная и личная жизнь главного героя пошла под откос, когда его пса ... 9.8 10 5
Info! Золотая раздача, скачанное не засчитывается.
Торрент: Зарегистрирован [2017-08-08 08:02] · скачан: 79 раз
Статус: √ проверено
Размер: 17.56 GB
Как cкачать? Как скачать Его собачье дело через торрент | qTorrent

% Раздел Тема Автор DL S | L
Фильмы [HD 720p, 1080p] (Хороший звук DUB, MVO) [ 7.93 GB ] Его собачье дело / Once Upon a Time in Venice [2017 BDRip 1080p] bober100 Скачать
1 | 0
Фильмы 2017 [DVDrip, WEB-DLRip, HDrip] (DUB, MVO) [ 2.32 GB ] Его собачье дело / Once Upon a Time in Venice [2017 BDRip-AVC] DUB [] +MVO bober100 Скачать
1 | 0
Фильмы 2017 [DVDrip, WEB-DLRip, HDrip] (DUB, MVO) [ 1.46 GB ] Его собачье дело / Once Upon a Time in Venice [2017 BDRip] - [] Twi7ter Скачать
1 | 0
Фильмы 2017 [DVDrip, WEB-DLRip, HDrip] (DUB, MVO) [ 1.45 GB ] Его собачье дело / Once Upon a Time in Venice [2017 BDRip-AVC] - ExKinoRay Enigma2010 Скачать
1 | 0
Фильмы (Blu-ray, BD-Remux, HDDVD) [ 28.62 GB ] Его собачье дело / Once Upon a Time in Venice [2017 BD Remux 1080p] DUB+AVO [] bober100 Скачать
1 | 0
Фильмы с авторской озвучкой [ 1.69 GB ] Его собачье дело / Однажды в Венисе / Once Upon a Time in Venice [2017 BDRip-AVC] [AVO] ) killermax2013 Скачать
1 | 0
Фильмы без перевода [ 17.06 GB ] Его собачье дело / Once Upon a Time in Venice [2016 BDRemux] [Оригинал-ENG] smaster Скачать
1 | 0

28-11-2019 20:33  

Отключить всю рекламу на сайте

    Дорогой пользователь! Огромная просьба, поблагодарите релизера, оцените раздачу и оставьте свои комментарий, если Вы скачали Его собачье дело через торрент бесплатно! Внесите свою лепту в развитие PiratBit!
    Комментировать посты могут только пользователи прошедшие не сложную регистрацию
    Показать сообщения:    

    Его собачье дело через торрент
    Скачать бесплатно Его собачье дело
    Его собачье дело скачать торрент
    Его собачье дело смотреть онлайн
    Cкачать фильм Его собачье дело бесплатно
    Его собачье дело скачать торрент в хорошем качестве
    Его собачье дело смотреть онлайн бесплатно в хорошем качестве


    Вы не можете начинать темы
    Вы не можете отвечать на сообщения
    Вы не можете редактировать свои сообщения
    Вы не можете удалять свои сообщения
    Вы не можете голосовать в опросах
    Вы не можете прикреплять файлы к сообщениям
    Вы можете скачивать файлы