Ссылка на приватное зеркало всего за 1$. Внимание количество ограничено!!!

iTunes

1+1

iTunes

мы

WEB-DL

1

iTunes

Чернобыль

iTunes

Ральф против интернета

Лицензия

ПШазам

Лицензия

Оно 2

Лицензия

30
pack

Вам бонус

ВАЖНО

!!Акция!!

Alien_RageХит недели

RePack

Resident Evil 21

ИГРА 18+

pack

RePack

jed

!!Акция!!

Alien_Rage

RePack

fifa19

RePack

Assassins Creed: Odyssey

RePack

NEED FOR SPEED™ PAYBACK

3 сезон

9 сезон

Бесстыжие 9 сезон

Все сериалы

все сериалы на PB.wtf

RePack

FAR CRY 5
Ребята, катастрофически не хватает 1900р. для оплаты серверов за Октябрь (всвязи с блокировками трафик упал в 3 раза), 1-2р., выручайте.
  

Девушка с гитарой (Александр Файнциммер) [1958, СССР, мюзикл, комедия, DVDRip от AVP Studio] pb.wtf

Девушка с гитарой через торрент pb.wtf

Размер: 1.09 GB | Добавлен: 2 года 4 мес. назад | Торрент скачан:23 раза
Скачать  

08-08-2017 09:20 Девушка с гитарой Скачать торрент  

Девушка с гитарой
Страна: СССР
Производство: Мосфильм

Жанр: мюзикл, комедия
Год выпуска: 1958
Продолжительность: 01:27:07

Перевод: Не требуется
Cубтитры: нет
Оригинальная аудиодорожка: русский

Режиссер: Александр Файнциммер

В ролях:
Людмила Гурченко, Михаил Жаров, Фаина Раневская, Сергей Блинников, Борис Петкер, Владимир Гусев, Татьяна Гурецкая, Олег Анофриев, Лариса Кронберг, Борис Новиков, Сергей Филиппов, Михаил Пуговкин, Т. Цинцадзе, Гиги Бакурадзе, Гурам Бзванели, Шота Харабадзе...
Об актёрах подробней

Описание:
Первый художественный фильм, посвящённый Международному фестивалю молодёжи и студентов в Москве.
Около хорошенькой продавщицы музыкального магазина Танечки Федосовой (Людмила Гурченко), мечтающей стать актрисой, всегда много покупателей. Больше всего они раздражают директора (Михаил Жаров), который боится потерять привлекательную сотрудницу и ценного работника.Он старается помешать возможной Таниной карьере, которая имеет все данные, чтобы стать актрисой. Знакомство девушки с молодым композитором Сергеем Корзиковым (Владимир Гусев) помогает её мечте осуществиться...

Источник: DVD9 R5
Качество видео: DVDRip
Формат видео: AVI

Видео: 704x528 (4:3), 25 fps, XviD ~ 1586 kbps avg, 0.171 bit/pixel
Аудио: 48 kHz, Dolby Digital AC3 2.0, 192 kbps

Раздача от:
Общее
Полное имя : Devushka.s.gitaroy.1958.DVDRip_[New-team]_by_AVP_Studio.avi
Формат : AVI
Формат/Информация : Audio Video Interleave
Размер файла : 1,09 Гбайт
Продолжительность : 1 ч. 27 м.
Общий поток : 1788 Кбит/сек
Программа кодирования : VirtualDubMod 1.5.10.3 | www.virtualdub-fr.org || (build 2550/release)
Библиотека кодирования : VirtualDubMod build 2550/release

Видео
Идентификатор : 0
Формат : MPEG-4 Visual
Профиль формата : Advanced Simple@L5
Параметр BVOP формата : 1
Параметр QPel формата : Нет
Параметр GMC формата : Без точки перехода
Параметр матрицы формата : Выборочная
Идентификатор кодека : XVID
Идентификатор кодека/Подсказка : XviD
Продолжительность : 1 ч. 27 м.
Битрейт : 1586 Кбит/сек
Ширина : 704 пикселя
Высота : 528 пикселей
Соотношение сторон : 4:3
Частота кадров : 25,000 кадров/сек
Цветовое пространство : YUV
Субдискретизация насыщенности : 4:2:0
Битовая глубина : 8 бит
Тип развёртки : Прогрессивная
Метод сжатия : С потерями
Бит/(Пиксели*Кадры) : 0.171
Размер потока : 988 Мбайт (89%)
Библиотека кодирования : XviD 73

Аудио
Идентификатор : 1
Формат : AC-3
Формат/Информация : Audio Coding 3
Параметр Endianness формата : Big
Идентификатор кодека : 2000
Продолжительность : 1 ч. 27 м.
Вид битрейта : Постоянный
Битрейт : 192 Кбит/сек
Каналы : 2 канала
Расположение каналов : Front: L R
Частота : 48,0 КГц
Частота кадров : 31,250 кадров/сек (1536 SPF)
Битовая глубина : 16 бит
Метод сжатия : С потерями
Размер потока : 120 Мбайт (11%)
Выравнивание : Разделение по промежуткам
Продолжительность промежутка : 40 мс. (1,00 видеокадр)
Время предзагрузки промежутка : 500 мс
pb.wtf



Скачать Девушка с гитарой через торрент http://s019.radikal.ru/i627/1708/97/1c560b48e455.png Скачать фильм Девушка с гитарой через торрент бесплантно в хорошем качестве Описание:Первый художественный фильм, посвящённый Международному фестивалю молодёжи и студентов в Москве.Около хорошенькой продавщицы ... 10 10 1
Info! Золотая раздача, скачанное не засчитывается.
Торрент: Зарегистрирован [2017-08-08 09:20] · скачан: 23 раз
Статус: √ проверено
Размер: 1.09 GB
Как cкачать? Как скачать Девушка с гитарой через торрент | qTorrent

% Раздел Тема Автор DL S | L
Кино СССР [ 1.09 GB ] Девушка с гитарой [1958 СССР мюзикл DVDRip-AVC от AVP Studio] AVP Studio Скачать
1 | 0
Кино СССР [ 745 MB ] Девушка с гитарой [1958 СССР мюзикл DVDRip от AVP Studio] AVP Studio Скачать
1 | 0

28-11-2019 20:33  

Отключить всю рекламу на сайте

    Дорогой пользователь! Огромная просьба, поблагодарите релизера, оцените раздачу и оставьте свои комментарий, если Вы скачали Девушка с гитарой через торрент бесплатно! Внесите свою лепту в развитие PiratBit!
    Комментировать посты могут только пользователи прошедшие не сложную регистрацию
    Показать сообщения:    

    Девушка с гитарой через торрент
    Скачать бесплатно Девушка с гитарой
    Девушка с гитарой скачать торрент
    Девушка с гитарой смотреть онлайн
    Cкачать фильм Девушка с гитарой бесплатно
    Девушка с гитарой скачать торрент в хорошем качестве
    Девушка с гитарой смотреть онлайн бесплатно в хорошем качестве


    Вы не можете начинать темы
    Вы не можете отвечать на сообщения
    Вы не можете редактировать свои сообщения
    Вы не можете удалять свои сообщения
    Вы не можете голосовать в опросах
    Вы не можете прикреплять файлы к сообщениям
    Вы можете скачивать файлы