Ссылка на приватное зеркало нашего сайта всего за 1$. Внимание количество ограничено!!!

2 сезон

iTunes

1 сезон

1

2 сезон

2 сезон

iTunes

1 сезон

RePack

30

Ultimate

ВАЖНО

ИГРА 18+

pack

RePack

MK11
pack

Забери бонус

RePack

jed

!!Акция!!

Alien_Rage

RePack

fifa19

RePack

Assassins Creed: Odyssey

RePack

NEED FOR SPEED™ PAYBACK

4 сезон

9 сезон

Бесстыжие 9 сезон

Все сериалы

все сериалы на PB.wtf

RePack

FAR CRY 5
  

На пятьдесят оттенков темнее / Fifty Shades Darker (Джеймс Фоули) [2017, Драма, мелодрама, BD Remux 1080p] DUB [Театральная версия] [Лицензия] pb.wtf

На пятьдесят оттенков темнее через торрент pb.wtf

Размер: 24.87 GB | Добавлен: 3 года 3 мес. назад | Торрент скачан:23 раза
Скачать  

08-08-2017 10:06 На пятьдесят оттенков темнее Скачать торрент  

На пятьдесят оттенков темнее / Fifty Shades Darker | Театральная версия | Год выпуска: 2017
Страна: США
Жанр: Драма, мелодрама
Продолжительность: 01:57:48
Перевод: Дублированный | Лицензия
Субтитры: Русские (forced, full), английские

Режиссер: Джеймс Фоули

rating

В ролях:

Дакота Джонсон, Джейми Дорнан, Эрик Джонсон, Элоиза Мамфорд, Белла Хиткот, Рита Ора, Люк Граймс, Виктор Расук, Макс Мартини, Брюс Олтмен

Описание:

Продолжение известной своей весьма селективной эротической направленностью экранизации романа Э.Л.Джеймс «Пятьдесят оттенков серого». Действующие лица все те же - приятного вида молодой любитель затейливо получаемых острых ощущений, обремененный ношей миллиардного состояния и юная, некогда романтично настроенная барышня. Однако расстановка силовых позиций в сформировавшейся паре медленно, но верно движется в сторону триллера: отношения между Анастейшей и Кристианом обостряются, когда в поле зрения появляются бывшие любовницы миллиардера — опытная и самоуверенная Элена (Ким Бейсингер) и крайне эмоциональная Лейла (Белла Хиткот). Итак, многогранный своими оттенками четырехугольник, психологические демоны Кристиана и неукротимая ревность Анастейши во второй части киноромана

Качество: BD Remux 1080p
Формат: MKV
Видео кодек: H.264
Аудио кодек: AC3/DTS

Видео: MPEG-4 AVC, 1920x1080, 24.5 Mbit/s, 23.976 fps
Аудио#1: 48 kHz, DTS, 5.1, 768 Kbps | Дублированный | RUS |
Аудио#2: 48 kHz, DTS-X, 7.1, 4966 Kbps | Оригинал | ENG |
скриншот   скриншот   скриншот   скриншот   скриншот  

General
Unique ID : 221995319703478243989567786883039553715 (0xA702BE4DB2A4590EA8A76090E4E6E8B3)
Complete name : F:VideoFifty.Shades.Darker.2017.Theatrical.Cut.Lic.BDREMUX.1080p.ExKinoRay.mkv
Format : Matroska
Format version : Version 4 / Version 2
File size : 24.9 GiB
Duration : 1 h 57 min
Overall bit rate mode : Variable
Overall bit rate : 30.2 Mb/s
Encoded date : UTC 2017-05-27 00:58:29
Writing application : mkvmerge v12.0.0 ('Trust / Lust') 64bit
Writing library : libebml v1.3.4 + libmatroska v1.4.5

Video
ID : 1
Format : AVC
Format/Info : Advanced Video Codec
Format profile : High@L4.1
Format settings, CABAC : Yes
Format settings, ReFrames : 4 frames
Codec ID : V_MPEG4/ISO/AVC
Duration : 1 h 57 min
Bit rate mode : Variable
Bit rate : 24.5 Mb/s
Maximum bit rate : 31.0 Mb/s
Width : 1 920 pixels
Height : 1 080 pixels
Display aspect ratio : 16:9
Frame rate mode : Constant
Frame rate : 23.976 (24000/1001) FPS
Color space : YUV
Chroma subsampling : 4:2:0
Bit depth : 8 bits
Scan type : Progressive
Bits/(Pixel*Frame) : 0.493
Stream size : 20.2 GiB (81%)
Language : English
Default : Yes
Forced : No

Audio #1
ID : 2
Format : DTS
Format/Info : Digital Theater Systems
Mode : 16
Format settings, Endianness : Big
Codec ID : A_DTS
Duration : 1 h 57 min
Bit rate mode : Constant
Bit rate : 768 kb/s
Channel(s) : 6 channels
Channel positions : Front: L C R, Side: L R, LFE
Sampling rate : 48.0 kHz
Frame rate : 93.750 FPS (512 spf)
Bit depth : 24 bits
Compression mode : Lossy
Stream size : 647 MiB (3%)
Title : Dub [License]
Language : Russian
Default : Yes
Forced : No

Audio #2
ID : 3
Format : DTS
Format/Info : Digital Theater Systems
Format profile : X / MA / Core
Mode : 16
Format settings, Endianness : Big
Codec ID : A_DTS
Duration : 1 h 57 min
Bit rate mode : Variable / Variable / Constant
Bit rate : 4 966 kb/s / 4 966 kb/s / 1 509 kb/s
Channel(s) : Object Based / 8 channels / 6 channels
Channel positions : Object Based / Front: L C R, Side: L R, Back: L R, LFE / Front: L C R, Side: L R, LFE
Sampling rate : / 48.0 kHz / 48.0 kHz
Frame rate : 93.750 FPS (512 spf)
Bit depth : / 24 bits / 24 bits
Compression mode : / Lossless / Lossy
Stream size : 4.09 GiB (16%)
Title : Original
Language : English
Default : No
Forced : No

Text #1
ID : 4
Format : UTF-8
Codec ID : S_TEXT/UTF8
Codec ID/Info : UTF-8 Plain Text
Duration : 1 h 56 min
Bit rate : 1 b/s
Count of elements : 40
Stream size : 1.59 KiB (0%)
Title : Forced
Language : Russian
Default : Yes
Forced : No

Text #2
ID : 5
Format : UTF-8
Codec ID : S_TEXT/UTF8
Codec ID/Info : UTF-8 Plain Text
Duration : 1 h 57 min
Bit rate : 58 b/s
Count of elements : 1337
Stream size : 50.4 KiB (0%)
Title : Full
Language : Russian
Default : No
Forced : No

Text #3
ID : 6
Format : UTF-8
Codec ID : S_TEXT/UTF8
Codec ID/Info : UTF-8 Plain Text
Duration : 1 h 55 min
Bit rate : 49 b/s
Count of elements : 1541
Stream size : 42.1 KiB (0%)
Title : Full
Language : English
Default : No
Forced : No

Menu
00:00:00.000 : en:Chapter 1
00:05:14.480 : en:Chapter 2
00:11:29.271 : en:Chapter 3
00:16:08.592 : en:Chapter 4
00:22:35.896 : en:Chapter 5
00:26:51.359 : en:Chapter 6
00:34:56.886 : en:Chapter 7
00:42:03.479 : en:Chapter 8
00:47:54.079 : en:Chapter 9
00:55:29.743 : en:Chapter 10
01:03:22.298 : en:Chapter 11
01:09:15.276 : en:Chapter 12
01:16:03.141 : en:Chapter 13
01:21:53.116 : en:Chapter 14
01:26:53.916 : en:Chapter 15
01:32:13.486 : en:Chapter 16
01:37:45.442 : en:Chapter 17
01:42:41.321 : en:Chapter 18
01:47:57.971 : en:Chapter 19
01:51:51.704 : en:Chapter 20

pb.wtf



Скачать На пятьдесят оттенков темнее через торрент http://i042.radikal.ru/1704/de/ecac34c453ec.jpg Скачать фильм На пятьдесят оттенков темнее через торрент бесплантно в хорошем качестве Описание: Продолжение известной своей весьма селективной эротической направленностью экранизации романа Э.Л.Джеймс «Пятьдесят оттенков ... 10 10 6
Info! Золотая раздача, скачанное не засчитывается.
Торрент: Зарегистрирован [2017-08-08 10:06] · скачан: 23 раз
Статус: √ проверено
Размер: 24.87 GB
Как cкачать? Как скачать На пятьдесят оттенков темнее через торрент | qTorrent

% Раздел Тема Автор DL S | L
Ultra HD (UHD: 2K, 4K, 8K) — видео сверхвысокой чёткости [ 41.23 GB ] На пятьдесят оттенков темнее / Fifty Shades Darker [2017 UHD BDRemux 2160p] [] [Unrated Cut] sheker187 Скачать
2 | 0
Ultra HD (UHD: 2K, 4K, 8K) — видео сверхвысокой чёткости [ 40.92 GB ] На пятьдесят оттенков темнее / Fifty Shades Darker [2017 UHD BDRemux 2160p] DUB [Расширенная версия] [] bober100 Скачать
1 | 0
Фильмы (Blu-ray, BD-Remux, HDDVD) [ 43.22 GB ] На пятьдесят оттенков темнее / Fifty Shades Darker [2017 Blu-ray CEE 1080p] DUB [Театральная/расширенная версия] [] bober100 Скачать
1 | 0
Фильмы без перевода [ 29.8 GB ] На пятьдесят оттенков темнее / Fifty Shades Darker [2017 BD Remux] [Оригинал-ENG] smaster Скачать
1 | 0
Фильмы [HD 720p, 1080p] (Хороший звук DUB, MVO) [ 11.9 GB ] На пятьдесят оттенков темнее / Fifty Shades Darker [2017 BDRip 1080p] [Расширенная версия] - [] -Lexx- Скачать
3 | 0
Фильмы (Blu-ray, BD-Remux, HDDVD) [ 30.19 GB ] На пятьдесят оттенков темнее / Fifty Shades Darker [2017 BDRemux 1080p от ExKinoRay] Расширенная версия / Russian Mafia Скачать
1 | 0
Фильмы [HD 720p, 1080p] (Хороший звук DUB, MVO) [ 7.75 GB ] На пятьдесят оттенков темнее / Fifty Shades Darker [2017 BDRip 1080p от еnvy / NNNB] DUB / Unrated / еnvy Скачать
86 | 4

28-11-2019 20:33  

Отключить всю рекламу на сайте

    Дорогой пользователь! Огромная просьба, поблагодарите релизера, оцените раздачу и оставьте свои комментарий, если Вы скачали На пятьдесят оттенков темнее через торрент бесплатно! Внесите свою лепту в развитие PiratBit!
    Комментировать посты могут только пользователи прошедшие не сложную регистрацию
    Показать сообщения:    

    На пятьдесят оттенков темнее через торрент
    Скачать бесплатно На пятьдесят оттенков темнее
    На пятьдесят оттенков темнее скачать торрент
    На пятьдесят оттенков темнее смотреть онлайн
    Cкачать фильм На пятьдесят оттенков темнее бесплатно
    На пятьдесят оттенков темнее скачать торрент в хорошем качестве
    На пятьдесят оттенков темнее смотреть онлайн бесплатно в хорошем качестве


    Вы не можете начинать темы
    Вы не можете отвечать на сообщения
    Вы не можете редактировать свои сообщения
    Вы не можете удалять свои сообщения
    Вы не можете голосовать в опросах
    Вы не можете прикреплять файлы к сообщениям
    Вы можете скачивать файлы