2 сезон

iTunes

1 сезон

1

iTunes

iTunes

iTunes

1 сезон

RePack

30

ИГРА 18+

pack

ВАЖНО

!!Акция!!

Alien_RageХит недели

RePack

MK11
pack

Забери бонус

RePack

jed

!!Акция!!

Alien_Rage

RePack

fifa19

RePack

Assassins Creed: Odyssey

RePack

NEED FOR SPEED™ PAYBACK

4 сезон

9 сезон

Бесстыжие 9 сезон

Все сериалы

все сериалы на PB.wtf

RePack

FAR CRY 5
  

Точки опоры / Серия 1- 8 из 8 (Павел Снисаренко) [2017 г., Детектив, мелодрама, SATRip] pb.wtf

Точки опоры через торрент pb.wtf

Размер: 5.31 GB | Добавлен: 3 года 2 мес. назад | Торрент скачан:94 раза
Скачать  

08-08-2017 10:34 Точки опоры Скачать торрент  

Точки опоры / Серия 1- 8 из 8
Год выпуска: 2017
Страна: Россия
Жанр: Детектив, мелодрама
Продолжительность: 8х~00:47:00
Субтитры: нет

Режиссер: Павел Снисаренко

В ролях: Александр Лазарев (мл.), Станислав Дужников, Елена Захарова, Александр Адабашьян, Дмитрий Исаев, Анна Банщикова, Владимир Стержаков, Олег Фомин, Александр Рапопорт, Антон Макарский, Мария Горбань, Владимир Стеклов, Михаил Горский, Александр Пашутин, Евгений Кулаков, Сергей Варчук, Екатерина Архарова, Ольга Машная, Любовь Германова, Александра Назарова, Андрей Бизюк, Анастасия Шемякина, Александра Живова, Анна Галлямова, Егор Климович

Описание: Денис Негривецкий – талантливый профессор физики, еще в институте придумал свой метод, который теперь успешно использует для расследования преступлений – «метод лишней и недостающий детали». Профессор помогает своему давнему другу – районному прокурору Дмитрию Астрову. Астров – полная противоположность Негривецкому – он практичный человек и семьянин. И хотя в молодости учился на физтехе, в итоге, выбрал своим призванием защищать закон. Своей семьи у Негривецкого нет, самыми близкими люди помимо Астрова он считает свою аспирантку Александру и старичка-антиквара Якова Моисеевича. У Александры своя история. Она рано вышла замуж, по большой любви. Ее отец обещал ее мужу Кириллу головокружительную карьеру, но … умер, не успев сдержать обещание. Теперь Кирилл во всех своих бедах и нереализованных мечтах винит Сашу. Девушка живет как в аду, и компания друзей - ее единственная отдушина. Саша давно влюблена в профессора Негривецкого и неумело это скрывает. Это заметно всем, кроме самого предмета любви. Особенно переживает за Сашеньку Яков Моисеевич, в лавке которого и собираются друзья для обсуждения всех насущных проблем. Собачка антиквара – такса Пыльный Кацо – любимец всей четверки.
Используя метод Негривецкого друзья успешно расследуют даже самые запутанные преступления…

Качество: SATRip
Формат: AVI
Видео кодек: XviD
Аудио кодек: MP3
Видео: 720x400, 25 fps, XviD, 1800 kbps
Аудио#1: 48 kHz, МР3, 2 ch, 128 kbps
скриншот   скриншот   скриншот   скриншот  

General
Complete name : H:\релизы.торрентфайл\Точки опоры (2017)\Tochki.opory.02.SATRip.[www.riperam.org].avi
Format : AVI
Format/Info : Audio Video Interleave
File size : 728 MiB
Duration : 52mn 30s
Overall bit rate : 1 938 Kbps
Writing application : VirtualDubMod 1.5.10.3 |
Writing library : VirtualDubMod build 2550/release

Video
ID : 0
Format : MPEG-4 Visual
Format profile : Advanced Simple@L5
Format settings, BVOP : 2
Format settings, QPel : No
Format settings, GMC : No warppoints
Format settings, Matrix : Default (H.263)
Codec ID : XVID
Codec ID/Hint : XviD
Duration : 52mn 30s
Bit rate : 1 800 Kbps
Width : 720 pixels
Height : 400 pixels
Display aspect ratio : 16:9
Frame rate : 25.000 fps
Color space : YUV
Chroma subsampling : 4:2:0
Bit depth : 8 bits
Scan type : Progressive
Compression mode : Lossy
Bits/(Pixel*Frame) : 0.250
Stream size : 676 MiB (93%)
Writing library : XviD 1.2.1 (UTC 2008-12-04)

Audio
ID : 1
Format : MPEG Audio
Format version : Version 1
Format profile : Layer 3
Mode : Joint stereo
Mode extension : MS Stereo
Codec ID : 55
Codec ID/Hint : MP3
Duration : 52mn 30s
Bit rate mode : Constant
Bit rate : 128 Kbps
Channel(s) : 2 channels
Sampling rate : 48.0 KHz
Compression mode : Lossy
Stream size : 48.1 MiB (7%)
Alignment : Aligned on interleaves
Interleave, duration : 40 ms (1.00 video frame)
Interleave, preload duration : 504 ms
Writing library : LAME3.99r
Encoding settings : -m j -V 4 -q 9 -lowpass 17 -b 128

Внимание! Раздача ведётся путём добавления новых серий; при каждом добавлении создётся новый торрент. Чтобы начать докачку новой серии, пользователям необходимо сделать следующее:
  • Остановить скачивание,
  • Удалить старый торрент у себя из клиента (старые серии удалять не надо),
  • Скачать новый торрент и запустить его у себя в клиенте вместо старого, при этом указать клиенту путь в старую папку куда и должно происходить скачивание новых серий.
Ваш клиент при этом должен произвести хеширование (проверку) старой папки (если не производит сам - помогите ему сделать это), и будет докачивать только те серии которых у вас ещё нет. Старые серии при этом не удаляются, а продолжают раздаваться!

Eсли вы уже удалили старые серии, то предотвратить повторную закачку старых серий можно, отжав галочку в соответсвующих местах при запуске нового торрента. По возможности, желательно не удалять старые серии как можно дольше чтобы релизёр не столько продолжал раздавать старые серии, а смог сконцентрироваться на новых.
pb.wtf



Скачать Точки опоры через торрент http://i95.fastpic.ru/big/2017/0808/57/b263c8c0f228261db6f7b8b8b47bc457.jpg Скачать фильм Точки опоры через торрент бесплантно в хорошем качестве Описание: Денис Негривецкий – талантливый профессор физики, еще в институте придумал свой метод, который теперь успешно использует для ... 10 10 5
Торрент: Зарегистрирован [2017-08-11 09:02] · скачан: 94 раз
Статус: √ проверено
Размер: 5.31 GB
Как cкачать? Как скачать Точки опоры через торрент | qTorrent

% Раздел Тема Автор DL S | L
Наши сериалы [ 4.7 GB ] Точки опоры / Серии: 1-8 из 8 [2017 SATRip-AVC] aleksan55 Скачать
1 | 0


Последний раз редактировалось: oleg8 (2017-08-11 09:02), всего редактировалось 2 раз(а)

28-11-2019 20:33  

Отключить всю рекламу на сайте

09-08-2017 07:39 Точки опоры Скачать торрент  

добавил 3-4 серии.pb.wtf



10-08-2017 09:57 Точки опоры Скачать торрент  

добавил 5-6 серии.pb.wtf



    Дорогой пользователь! Огромная просьба, поблагодарите релизера, оцените раздачу и оставьте свои комментарий, если Вы скачали Точки опоры через торрент бесплатно! Внесите свою лепту в развитие PiratBit!
    Комментировать посты могут только пользователи прошедшие не сложную регистрацию
    Показать сообщения:    

    Точки опоры через торрент
    Скачать бесплатно Точки опоры
    Точки опоры скачать торрент
    Точки опоры смотреть онлайн
    Cкачать фильм Точки опоры бесплатно
    Точки опоры скачать торрент в хорошем качестве
    Точки опоры смотреть онлайн бесплатно в хорошем качестве


    Вы не можете начинать темы
    Вы не можете отвечать на сообщения
    Вы не можете редактировать свои сообщения
    Вы не можете удалять свои сообщения
    Вы не можете голосовать в опросах
    Вы не можете прикреплять файлы к сообщениям
    Вы можете скачивать файлы