Ссылка на приватное зеркало нашего сайта всего за 1$. Внимание количество ограничено!!!

2 сезон

iTunes

1 сезон

1

iTunes

iTunes

iTunes

1 сезон

RePack

30

ИГРА 18+

pack

ВАЖНО

!!Акция!!

Alien_RageХит недели

RePack

MK11
pack

Забери бонус

RePack

jed

!!Акция!!

Alien_Rage

RePack

fifa19

RePack

Assassins Creed: Odyssey

RePack

NEED FOR SPEED™ PAYBACK

4 сезон

9 сезон

Бесстыжие 9 сезон

Все сериалы

все сериалы на PB.wtf

RePack

FAR CRY 5
  

Моя земля / Under sandet (Мартин Зандвлиет) [2015, военный, история, драма, BDRip 720p by msltel] MVO, AVO, VO pb.wtf

Моя земля через торрент pb.wtf

Размер: 3.95 GB | Добавлен: 3 года 2 мес. назад | Торрент скачан:174 раза
Скачать  

08-08-2017 10:49 Моя земля Скачать торрент  

Название: Моя земля
Оригинальное название: Under sandet
Год выпуска: 2015
Страна: Дания, Германия
Жанр: военный, история, драма
Продолжительность: 01:41:22
Перевод: профессиональный многоголосый, авторский, любительский одноголосый

Режиссер: Мартин Зандвлиет
В ролях: Роланд Мёллер, Миккель Боэ Фёльсгор, Луис Хофманн, Йоэль Басман, Оскар Бёкельманн, Эмиль Бушов, Оскар Бушов, Леон Зайдель, Лаура Бро

О фильме: Май 1945 года. Дания постепенно приходит в себя после оккупации Германией. Однако всё западное побережье заминировано — сюрприз союзным войскам. По решению военного командования, разминирование будет проводиться с помощью военнопленных. Сержанту Расмуссену категорически не везёт: в его распоряжение поступают совсем молоденькие немецкие солдаты, мальчишки, еще вчера списывавшие друг у друга на контрольной...



Качество: BDRip 720p
Формат: MKV
Видео: MPEG-4 AVC, 3856 Кбит/с, 1280x536
Аудио 1: русский, AC3, 384 kbps, 6 ch, 48 kHz [профессиональный многоголосый, iTunes]
Аудио 2: русский, AC3, 448 kbps, 6 ch, 48 kHz [авторский, Юрий Сербин]
Аудио 3: русский, AC3, 448 kbps, 6 ch, 48 kHz [любительский одноголосый, Вячеслав Замез]
Аудио 4: немецкий, AC3, 448 kbps, 6 ch, 48 kHz [оригинал]
Субтитры 1: русские
Субтитры 2: английские
Имеются неименованные главы/чаптеры.
Общее
Уникальный идентификатор : 221824024557350366421720868702720670906 (0xA6E1C0CCFE46EE0291E2C8F78190BCBA)
Полное имя : D:\Video\Моя земля.2015.BDRip.720p by msltel.mkv
Формат : Matroska
Версия формата : Version 4 / Version 2
Размер файла : 3,95 Гбайт
Продолжительность : 1 ч. 41 м.
Общий поток : 5584 Кбит/сек
Название фильма : Rip by msltel
Дата кодирования : UTC 2017-08-07 02:25:35
Программа кодирования : mkvmerge v8.2.0 ('World of Adventure') 64bit
Библиотека кодирования : libebml v1.3.1 + libmatroska v1.4.2

Видео
Идентификатор : 1
Формат : AVC
Формат/Информация : Advanced Video Codec
Профиль формата : High@L4.1
Параметр CABAC формата : Да
Параметр ReFrames формата : 9 кадров
Идентификатор кодека : V_MPEG4/ISO/AVC
Продолжительность : 1 ч. 41 м.
Битрейт : 3856 Кбит/сек
Ширина : 1280 пикселей
Высота : 536 пикселей
Соотношение сторон : 2,40:1
Режим частоты кадров : Постоянный
Частота кадров : 24,000 кадра/сек
Цветовое пространство : YUV
Субдискретизация насыщенности : 4:2:0
Битовая глубина : 8 бит
Тип развёртки : Прогрессивная
Бит/(Пиксели*Кадры) : 0.234
Размер потока : 2,73 Гбайт (69%)
Библиотека кодирования : x264 core 146 r2538 121396c
Настройки программы : cabac=1 / ref=9 / deblock=1:-3:-2 / analyse=0x3:0x113 / me=umh / subme=11 / psy=1 / psy_rd=1.00:0.15 / mixed_ref=1 / me_range=32 / chroma_me=1 / trellis=2 / 8x8dct=1 / cqm=0 / deadzone=21,11 / fast_pskip=0 / chroma_qp_offset=-3 / threads=6 / lookahead_threads=1 / sliced_threads=0 / nr=0 / decimate=1 / interlaced=0 / bluray_compat=0 / constrained_intra=0 / bframes=10 / b_pyramid=2 / b_adapt=2 / b_bias=0 / direct=1 / weightb=1 / open_gop=0 / weightp=2 / keyint=230 / keyint_min=23 / scenecut=40 / intra_refresh=0 / rc_lookahead=40 / rc=crf / mbtree=0 / crf=17.0 / qcomp=0.60 / qpmin=0 / qpmax=69 / qpstep=4 / vbv_maxrate=62500 / vbv_bufsize=78125 / crf_max=0.0 / nal_hrd=none / filler=0 / ip_ratio=1.40 / pb_ratio=1.30 / aq=1:1.00
Язык : German
Default : Да
Forced : Нет

Аудио #1
Идентификатор : 2
Формат : AC-3
Формат/Информация : Audio Coding 3
Параметр Endianness формата : Big
Идентификатор кодека : A_AC3
Продолжительность : 1 ч. 41 м.
Вид битрейта : Постоянный
Битрейт : 384 Кбит/сек
Каналы : 6 каналов
Расположение каналов : Front: L C R, Side: L R, LFE
Частота : 48,0 КГц
Частота кадров : 31,250 кадров/сек (1536 spf)
Битовая глубина : 16 бит
Метод сжатия : С потерями
Размер потока : 278 Мбайт (7%)
Заголовок : MVO (iTunes)
Язык : Russian
ServiceKind/String : Complete Main
Default : Да
Forced : Нет

Аудио #2
Идентификатор : 3
Формат : AC-3
Формат/Информация : Audio Coding 3
Параметр Endianness формата : Big
Идентификатор кодека : A_AC3
Продолжительность : 1 ч. 41 м.
Вид битрейта : Постоянный
Битрейт : 448 Кбит/сек
Каналы : 6 каналов
Расположение каналов : Front: L C R, Side: L R, LFE
Частота : 48,0 КГц
Частота кадров : 31,250 кадров/сек (1536 spf)
Битовая глубина : 16 бит
Метод сжатия : С потерями
Размер потока : 324 Мбайт (8%)
Заголовок : AVO (Юрий Сербин)
Язык : Russian
ServiceKind/String : Complete Main
Default : Нет
Forced : Нет

Аудио #3
Идентификатор : 4
Формат : AC-3
Формат/Информация : Audio Coding 3
Параметр Endianness формата : Big
Идентификатор кодека : A_AC3
Продолжительность : 1 ч. 41 м.
Вид битрейта : Постоянный
Битрейт : 448 Кбит/сек
Каналы : 6 каналов
Расположение каналов : Front: L C R, Side: L R, LFE
Частота : 48,0 КГц
Частота кадров : 31,250 кадров/сек (1536 spf)
Битовая глубина : 16 бит
Метод сжатия : С потерями
Размер потока : 324 Мбайт (8%)
Заголовок : любительский одноголосый, Вячеслав Замез
Язык : Russian
ServiceKind/String : Complete Main
Default : Нет
Forced : Нет

Аудио #4
Идентификатор : 5
Формат : AC-3
Формат/Информация : Audio Coding 3
Параметр Endianness формата : Big
Идентификатор кодека : A_AC3
Продолжительность : 1 ч. 41 м.
Вид битрейта : Постоянный
Битрейт : 448 Кбит/сек
Каналы : 6 каналов
Расположение каналов : Front: L C R, Side: L R, LFE
Частота : 48,0 КГц
Частота кадров : 31,250 кадров/сек (1536 spf)
Битовая глубина : 16 бит
Метод сжатия : С потерями
Размер потока : 325 Мбайт (8%)
Заголовок : original
Язык : German
ServiceKind/String : Complete Main
Default : Нет
Forced : Нет

Текст #1
Идентификатор : 6
Формат : UTF-8
Идентификатор кодека : S_TEXT/UTF8
Идентификатор кодека/Информация : UTF-8 Plain Text
Продолжительность : 1 ч. 34 м.
Битрейт : 57 бит/сек
ElementCount : 672
Размер потока : 39,9 Кбайт (0%)
Заголовок : русские
Язык : Russian
Default : Нет
Forced : Нет

Текст #2
Идентификатор : 7
Формат : UTF-8
Идентификатор кодека : S_TEXT/UTF8
Идентификатор кодека/Информация : UTF-8 Plain Text
Продолжительность : 1 ч. 34 м.
Битрейт : 31 бит/сек
ElementCount : 670
Размер потока : 21,7 Кбайт (0%)
Заголовок : английские
Язык : English
Default : Нет
Forced : Нет

Меню
00:00:00.000 : en:00:00:00.000
00:01:38.042 : en:00:01:38.042
00:07:02.958 : en:00:07:02.958
00:11:25.667 : en:00:11:25.667
00:18:15.958 : en:00:18:15.958
00:22:58.875 : en:00:22:58.875
00:28:15.375 : en:00:28:15.375
00:34:04.250 : en:00:34:04.250
00:39:08.458 : en:00:39:08.458
00:45:48.458 : en:00:45:48.458
00:51:09.250 : en:00:51:09.250
00:56:47.000 : en:00:56:47.000
01:03:13.917 : en:01:03:13.917
01:07:33.125 : en:01:07:33.125
01:13:37.667 : en:01:13:37.667
01:18:17.042 : en:01:18:17.042
01:20:26.542 : en:01:20:26.542
01:25:22.167 : en:01:25:22.167
01:31:34.083 : en:01:31:34.083
01:35:51.500 : en:01:35:51.500
pb.wtf



Скачать Моя земля через торрент http://s11.radikal.ru/i183/1708/d9/38d7cc965882.jpg Скачать фильм Моя земля через торрент бесплантно в хорошем качестве О фильме: Май 1945 года. Дания постепенно приходит в себя после оккупации Германией. Однако всё западное побережье заминировано — сюрприз ... 8.7 10 6
Info! Золотая раздача, скачанное не засчитывается.
Торрент: Зарегистрирован [2017-08-08 10:49] · скачан: 174 раз
Статус: √ проверено
Размер: 3.95 GB
Как cкачать? Как скачать Моя земля через торрент | qTorrent

% Раздел Тема Автор DL S | L
Фильмы 2015 [DVDrip, WEB-DLRip, HDrip] [ 2.69 GB ] Моя земля / Under sandet [2015 Военный история BDRip-AVC MVO AVO VO] от ExKinoRay morfyi Скачать
1 | 0
Фильмы [HD 720p, 1080p] (Хороший звук DUB, MVO) [ 10.4 GB ] Моя земля / Under sandet [2015 военный история BDRip 1080p by msltel] MVO AVO VO msltel Скачать
1 | 0

28-11-2019 20:33  

Отключить всю рекламу на сайте

09-08-2017 08:35 Моя земля Скачать торрент  

Какие отзывы?pb.wtf



09-08-2017 15:18 Моя земля Скачать торрент  

Спасибо за фильм!

IMDB 7.8 о многом говорит!pb.wtf



    Дорогой пользователь! Огромная просьба, поблагодарите релизера, оцените раздачу и оставьте свои комментарий, если Вы скачали Моя земля через торрент бесплатно! Внесите свою лепту в развитие PiratBit!
    Комментировать посты могут только пользователи прошедшие не сложную регистрацию
    Показать сообщения:    

    Моя земля через торрент
    Скачать бесплатно Моя земля
    Моя земля скачать торрент
    Моя земля смотреть онлайн
    Cкачать фильм Моя земля бесплатно
    Моя земля скачать торрент в хорошем качестве
    Моя земля смотреть онлайн бесплатно в хорошем качестве


    Вы не можете начинать темы
    Вы не можете отвечать на сообщения
    Вы не можете редактировать свои сообщения
    Вы не можете удалять свои сообщения
    Вы не можете голосовать в опросах
    Вы не можете прикреплять файлы к сообщениям
    Вы можете скачивать файлы