Ссылка на приватное зеркало нашего сайта всего за 1$. Внимание количество ограничено!!!

2 сезон

iTunes

1 сезон

1

2 сезон

2 сезон

iTunes

1 сезон

RePack

30

Новинка

ВАЖНО

ИГРА 18+

pack

RePack

MK11
pack

Забери бонус

RePack

jed

!!Акция!!

Alien_Rage

RePack

fifa19

RePack

Assassins Creed: Odyssey

RePack

NEED FOR SPEED™ PAYBACK

4 сезон

9 сезон

Бесстыжие 9 сезон

Все сериалы

все сериалы на PB.wtf

RePack

FAR CRY 5
  

Девушка пробуждается / Girl Asleep (Розмари Майерс) [2015, комедия, семейный, фэнтези, BDRip 720p by msltel] VO pb.wtf

Девушка пробуждается через торрент pb.wtf

Размер: 2.54 GB | Добавлен: 3 года 3 мес. назад | Торрент скачан:82 раза
Скачать  

08-08-2017 13:58 Девушка пробуждается Скачать торрент  

Название: Девушка пробуждается
Оригинальное название: Girl Asleep
Год выпуска: 2015
Страна: Австралия
Жанр: комедия, семейный, фэнтези
Продолжительность: 01:17:24
Перевод: любительский одноголосый

Режиссер: Розмари Майерс
В ролях: Бетани Витмор, Харрисон Фельдман, Эмбер МакМахон, Мэттью Уиттэт, Имон Фэррен, Тильда Кобэм-Херви, Имоджен Арчер, Катанзарити, Эллен Стил, Майя Стюардсон

О фильме: Грете живётся непросто: её семья только переехала в новый город, где единственным другом девочки стал одноклассник Эллиотт, такой же чудик, как и она сама. К тому же, ей вот-вот исполнится пятнадцать, то есть откроются сверкающие врата в новую, взрослую жизнь, с которой Грета пока толком не понимает, что делать...



Качество: BDRip 720p
Формат: MKV
Видео: MPEG-4 AVC, 3806 Кбит/с, 964x720, 24 кадр/с
Аудио 1: русский, AC3, 448 kbps, 6 ch, 48 kHz [любительский одноголосый, Сэм Квинта]
Аудио 2: английский, AC3, 448 kbps, 6 ch, 48 kHz [оригинал]
Субтитры 1: русские
Субтитры 2: английские
Имеются неименованные главы/чаптеры.
Общее
Уникальный идентификатор : 214781829796680352400514577917489590083 (0xA19579CADADE2F76A4EFC7B3AD7A2F43)
Полное имя : D:\Video\Девушка пробуждается.2015.BDRip.720p by msltel.mkv
Формат : Matroska
Версия формата : Version 4 / Version 2
Размер файла : 2,54 Гбайт
Продолжительность : 1 ч. 17 м.
Общий поток : 4704 Кбит/сек
Название фильма : Rip by msltel
Дата кодирования : UTC 2017-08-07 02:40:43
Программа кодирования : mkvmerge v8.2.0 ('World of Adventure') 64bit
Библиотека кодирования : libebml v1.3.1 + libmatroska v1.4.2

Видео
Идентификатор : 1
Формат : AVC
Формат/Информация : Advanced Video Codec
Профиль формата : High@L4.1
Параметр CABAC формата : Да
Параметр ReFrames формата : 9 кадров
Идентификатор кодека : V_MPEG4/ISO/AVC
Продолжительность : 1 ч. 17 м.
Битрейт : 3806 Кбит/сек
Ширина : 964 пикселя
Высота : 720 пикселей
Соотношение сторон : 4:3
Режим частоты кадров : Постоянный
Частота кадров : 24,000 кадра/сек
Цветовое пространство : YUV
Субдискретизация насыщенности : 4:2:0
Битовая глубина : 8 бит
Тип развёртки : Прогрессивная
Бит/(Пиксели*Кадры) : 0.228
Размер потока : 2,06 Гбайт (81%)
Библиотека кодирования : x264 core 146 r2538 121396c
Настройки программы : cabac=1 / ref=9 / deblock=1:-3:-2 / analyse=0x3:0x113 / me=umh / subme=11 / psy=1 / psy_rd=1.00:0.15 / mixed_ref=1 / me_range=32 / chroma_me=1 / trellis=2 / 8x8dct=1 / cqm=0 / deadzone=21,11 / fast_pskip=0 / chroma_qp_offset=-3 / threads=6 / lookahead_threads=1 / sliced_threads=0 / nr=0 / decimate=1 / interlaced=0 / bluray_compat=0 / constrained_intra=0 / bframes=10 / b_pyramid=2 / b_adapt=2 / b_bias=0 / direct=1 / weightb=1 / open_gop=0 / weightp=2 / keyint=230 / keyint_min=23 / scenecut=40 / intra_refresh=0 / rc_lookahead=40 / rc=crf / mbtree=0 / crf=18.0 / qcomp=0.60 / qpmin=0 / qpmax=69 / qpstep=4 / vbv_maxrate=62500 / vbv_bufsize=78125 / crf_max=0.0 / nal_hrd=none / filler=0 / ip_ratio=1.40 / pb_ratio=1.30 / aq=1:1.00
Язык : English
Default : Да
Forced : Нет

Аудио #1
Идентификатор : 2
Формат : AC-3
Формат/Информация : Audio Coding 3
Параметр Endianness формата : Big
Идентификатор кодека : A_AC3
Продолжительность : 1 ч. 17 м.
Вид битрейта : Постоянный
Битрейт : 448 Кбит/сек
Каналы : 6 каналов
Расположение каналов : Front: L C R, Side: L R, LFE
Частота : 48,0 КГц
Частота кадров : 31,250 кадров/сек (1536 spf)
Битовая глубина : 16 бит
Метод сжатия : С потерями
Размер потока : 248 Мбайт (10%)
Заголовок : любительский одноголосый, Сэм Квинта
Язык : Russian
ServiceKind/String : Complete Main
Default : Да
Forced : Нет

Аудио #2
Идентификатор : 3
Формат : AC-3
Формат/Информация : Audio Coding 3
Параметр Endianness формата : Big
Идентификатор кодека : A_AC3
Продолжительность : 1 ч. 17 м.
Вид битрейта : Постоянный
Битрейт : 448 Кбит/сек
Каналы : 6 каналов
Расположение каналов : Front: L C R, Side: L R, LFE
Частота : 48,0 КГц
Частота кадров : 31,250 кадров/сек (1536 spf)
Битовая глубина : 16 бит
Метод сжатия : С потерями
Размер потока : 248 Мбайт (10%)
Заголовок : original
Язык : English
ServiceKind/String : Complete Main
Default : Нет
Forced : Нет

Текст #1
Идентификатор : 4
Формат : UTF-8
Идентификатор кодека : S_TEXT/UTF8
Идентификатор кодека/Информация : UTF-8 Plain Text
Продолжительность : 1 ч. 13 м.
Битрейт : 70 бит/сек
ElementCount : 724
Размер потока : 38,3 Кбайт (0%)
Заголовок : русские
Язык : Russian
Default : Нет
Forced : Нет

Текст #2
Идентификатор : 5
Формат : UTF-8
Идентификатор кодека : S_TEXT/UTF8
Идентификатор кодека/Информация : UTF-8 Plain Text
Продолжительность : 1 ч. 17 м.
Битрейт : 56 бит/сек
ElementCount : 1377
Размер потока : 32,0 Кбайт (0%)
Заголовок : английские
Язык : English
Default : Нет
Forced : Нет

Меню
00:00:00.000 : en:Chapter 01
00:05:14.416 : en:Chapter 02
00:09:31.000 : en:Chapter 03
00:17:06.500 : en:Chapter 04
00:26:05.000 : en:Chapter 05
00:32:35.375 : en:Chapter 06
00:42:34.000 : en:Chapter 07
00:55:16.208 : en:Chapter 08
01:07:30.750 : en:Chapter 09
01:13:31.041 : en:Chapter 10
pb.wtf



Скачать Девушка пробуждается через торрент http://s019.radikal.ru/i600/1708/f7/474da1909e62.jpg Скачать фильм Девушка пробуждается через торрент бесплантно в хорошем качестве О фильме: Грете живётся непросто: её семья только переехала в новый город, где единственным другом девочки стал одноклассник Эллиотт, такой ... 9.7 10 3
Info! Золотая раздача, скачанное не засчитывается.
Торрент: Зарегистрирован [2017-08-08 13:58] · скачан: 82 раз
Статус: √ проверено
Размер: 2.54 GB
Как cкачать? Как скачать Девушка пробуждается через торрент | qTorrent

% Раздел Тема Автор DL S | L
Фильмы [HD 720p, 1080p] (Звук Cam, VO, DVO) [ 7.56 GB ] Девушка пробуждается / Girl Asleep [2015 BDRip 1080p by msltel] VO msltel Скачать
1 | 0

28-11-2019 20:33  

Отключить всю рекламу на сайте

    Дорогой пользователь! Огромная просьба, поблагодарите релизера, оцените раздачу и оставьте свои комментарий, если Вы скачали Девушка пробуждается через торрент бесплатно! Внесите свою лепту в развитие PiratBit!
    Комментировать посты могут только пользователи прошедшие не сложную регистрацию
    Показать сообщения:    

    Девушка пробуждается через торрент
    Скачать бесплатно Девушка пробуждается
    Девушка пробуждается скачать торрент
    Девушка пробуждается смотреть онлайн
    Cкачать фильм Девушка пробуждается бесплатно
    Девушка пробуждается скачать торрент в хорошем качестве
    Девушка пробуждается смотреть онлайн бесплатно в хорошем качестве


    Вы не можете начинать темы
    Вы не можете отвечать на сообщения
    Вы не можете редактировать свои сообщения
    Вы не можете удалять свои сообщения
    Вы не можете голосовать в опросах
    Вы не можете прикреплять файлы к сообщениям
    Вы можете скачивать файлы