2 сезон

iTunes

MVO

1

2 сезон

iTunes

iTunes

1 сезон

RePack

30

Ultimate

ВАЖНО

ИГРА 18+

pack

RePack

MK11
pack

Легкие деньги

RePack

jed

RePack

fifa19

RePack

RDR2

RePack

NEED FOR SPEED™ PAYBACK

4 сезон

9 сезон

Бесстыжие 9 сезон

Все сериалы

все сериалы на PB.wtf

RePack

FAR CRY 5

Anonymous, добрый вечер, мы не успеваем собрать деньги на оплату серверов за декабрь и январь, помогите нам пожалуйста в это трудное время. В качестве благодарности мы отключим Вам всю рекламу на сайте (укажите свой ник в строку Ваше имя)!

×
  
Magnet ссылка

Стражи Галактики. Часть 2 / Guardians of the Galaxy Vol. 2 (Джеймс Ганн) [2017, фантастика, боевик, приключения, HDRip-AVC] DUB [iTunes] pb.wtf

Стражи Галактики. Часть 2 через торрент pb.wtf

Раздают: 1 [ 0 KB/s ]
Размер: 2.19 GB | Добавлен: 3 года 5 мес. назад | Торрент скачан:311 раз
Скачать  

08-08-2017 19:41 Стражи Галактики. Часть 2 Скачать торрент  

Стражи Галактики. Часть 2 / Guardians of the Galaxy Vol. 2
Год выпуска: 2017
Страна: США
Жанр: фантастика, боевик, приключения
Продолжительность: 02:15:46
Перевод: Дубляж iTunes
Субтитры: Русские, английские

Режиссер: Джеймс Ганн

rating

В ролях:

Крис Пратт, Зои Салдана, Дэйв Батиста, Вин Дизель, Брэдли Купер, Майкл Рукер, Карен Гиллан, Пом Клементьефф, Элизабет Дебики, Курт Рассел

Описание:

Все в сборе: землянин Питер Квилл (Звездный Лорд), молчаливый громила Дракс, зеленокожая наемница Гамора, живое дерево Грут и говорящий енот. Герои не изменяют себе и с завидной регулярностью продолжают попадать в немыслимые ситуации, выпутываясь из них почти без ущерба (а иногда даже с пользой) для окружающих. На этот раз им предстоит раскрыть одну из самых главных тайн во всей Галактике: кто же на самом деле отец Питера Квилла?

Качество: HDRip-AVC
Формат: MKV
Видео кодек: H.264
Аудио кодек: AC3

Видео: 984x412 (2.40:1), 24 fps, AVC MPEG-4 (H.264), High@L4.1 ~1491 kbps, 0.153 bit/pixel
Аудио#1: Русский: 48 kHz, AC3 Dolby Digital, 3/2 (L,C,R,l,r) + LFE ch, ~384 kbps [Профессиональный (полное дублирование)]
Аудио#2: Английский: 48 kHz, AC3 Dolby Digital, 3/2 (L,C,R,l,r) + LFE ch, ~384 kbps [Оригинал]
скриншот   скриншот   скриншот   скриншот  

Format : Matroska
Format version : Version 4 / Version 2
File size : 2.19 GiB
Duration : 2h 15 min
Overall bit rate : 2 305 kb/s
Movie name : Стражи Галактики. Часть 2 / Guardians of the Galaxy Vol. 2 (2017) :: AFM ::
Encoded date : UTC 2017-08-08 16:13:00
Writing application : mkvmerge v8.3.0 ('Over the Horizon') 32bit
Writing library : libebml v1.3.1 + libmatroska v1.4.2

Video
ID : 1
Format : AVC
Format/Info : Advanced Video Codec
Format profile : High@L4.1
Format settings, CABAC : Yes
Format settings, ReFrames : 12 frames
Codec ID : V_MPEG4/ISO/AVC
Duration : 2h 15 min
Bit rate : 1 491 kb/s
Width : 984 pixels
Height : 412 pixels
Display aspect ratio : 2.40:1
Frame rate mode : Constant
Frame rate : 23.976 (24000/1001) FPS
Color space : YUV
Chroma subsampling : 4:2:0
Bit depth : 8 bits
Scan type : Progressive
Bits/(Pixel*Frame) : 0.153
Stream size : 1.41 GiB (65%)
Title : HDRip by AFM
Writing library : x264 core 152 r2851+45 9658d1a 7mod [8-bit@all X86_64]
Encoding settings : cabac=1 / ref=12 / deblock=1:-3:-2 / analyse=0x3:0x133 / me=umh / subme=10 / psy=1 / fade_compensate=0.00 / psy_rd=1.00:0.00 / mixed_ref=1 / me_range=32 / chroma_me=0 / trellis=2 / 8x8dct=1 / cqm=0 / deadzone=21,11 / fast_pskip=0 / chroma_qp_offset=-2 / threads=6 / lookahead_threads=1 / sliced_threads=0 / nr=0 / decimate=1 / interlaced=0 / bluray_compat=0 / constrained_intra=0 / fgo=0 / bframes=12 / b_pyramid=2 / b_adapt=2 / b_bias=0 / direct=1 / weightb=1 / open_gop=0 / weightp=2 / keyint=240 / keyint_min=23 / scenecut=40 / intra_refresh=0 / rc_lookahead=90 / rc=crf / mbtree=0 / crf=19.1000 / qcomp=0.65 / qpmin=0:0:0 / qpmax=69:69:69 / qpstep=4 / vbv_maxrate=50000 / vbv_bufsize=62500 / crf_max=0.0 / nal_hrd=none / filler=0 / ip_ratio=1.35 / pb_ratio=1.25 / aq=3:0.80 / aq-sensitivity=10.00 / aq-factor=1.00:1.00:1.00 / aq2=0 / aq3=0 / zones=184015,188815,q=28
Language : English
Default : Yes
Forced : No

Audio #1
ID : 2
Format : AC-3
Format/Info : Audio Coding 3
Mode extension : CM (complete main)
Format settings, Endianness : Big
Codec ID : A_AC3
Duration : 2h 15 min
Bit rate mode : Constant
Bit rate : 384 kb/s
Channel(s) : 6 channels
Channel positions : Front: L C R, Side: L R, LFE
Sampling rate : 48.0 kHz
Frame rate : 31.250 FPS (1536 spf)
Compression mode : Lossy
Stream size : 373 MiB (17%)
Title : Dub, AC3 5.1 ~384 kbps
Language : Russian
Default : Yes
Forced : No

Audio #2
ID : 3
Format : AC-3
Format/Info : Audio Coding 3
Mode extension : CM (complete main)
Format settings, Endianness : Big
Codec ID : A_AC3
Duration : 2h 15 min
Bit rate mode : Constant
Bit rate : 384 kb/s
Channel(s) : 6 channels
Channel positions : Front: L C R, Side: L R, LFE
Sampling rate : 48.0 kHz
Frame rate : 31.250 FPS (1536 spf)
Compression mode : Lossy
Stream size : 373 MiB (17%)
Title : Original, AC3 5.1 ~384 kbps
Language : English
Default : No
Forced : No

Text #1
ID : 4
Format : UTF-8
Codec ID : S_TEXT/UTF8
Codec ID/Info : UTF-8 Plain Text
Title : forced
Language : Russian
Default : Yes
Forced : No

Text #2
ID : 5
Format : UTF-8
Codec ID : S_TEXT/UTF8
Codec ID/Info : UTF-8 Plain Text
Language : Russian
Default : No
Forced : No

Text #3
ID : 6
Format : UTF-8
Codec ID : S_TEXT/UTF8
Codec ID/Info : UTF-8 Plain Text
Language : English
Default : No
Forced : No

Menu
00:00:00.834 : en:King Cobra & Giant Sea Monkey
00:09:56.834 : en:Golden Morons
00:15:10.834 : en:Space Chase
00:22:14.834 : en:Not From Missouri
00:32:33.834 : en:Deepest, Darkest Secrets
00:36:52.834 : en:Berhert Ambush
00:42:29.834 : en:Finding Meaning
00:48:03.834 : en:Taserface
00:53:19.834 : en:Celestial Catch
00:58:46.834 : en:Let's Agree To Never Discuss This
01:05:52.834 : en:Eclector Escape
01:11:12.834 : en:Sibling Rivalry
01:18:43.834 : en:Eternity
01:23:55.834 : en:Two Of A Kind
01:30:24.834 : en:Inflated Ego
01:39:36.834 : en:What A Day
01:47:06.834 : en:From The Heart
01:54:21.834 : en:A Father's Sacrifice
01:58:52.834 : en:The Colors Of Ogord
02:07:13.834 : en:End Credits

pb.wtf



Скачать Стражи Галактики. Часть 2 через торрент http://img12.lostpic.net/2017/08/03/d6ab6cd79e2fdcbccebf0739097bbe4e.png Скачать фильм Стражи Галактики. Часть 2 через торрент бесплантно в хорошем качестве Описание: Все в сборе: землянин Питер Квилл (Звездный Лорд), молчаливый громила Дракс, зеленокожая наемница Гамора, живое дерево Грут и ... 10 10 8
Info! Золотая раздача, скачанное не засчитывается.
Торрент: Зарегистрирован [2017-08-08 19:41] · скачан: 311 раз
Статус: √ проверено
Размер: 2.19 GB
Как cкачать? Как скачать Стражи Галактики. Часть 2 через торрент | UTorrent

% Раздел Тема Автор DL S | L
3D Фильмы [ 8.54 GB ] Стражи Галактики. Часть 2 в 3D / Guardians of the Galaxy Vol. 2 in 3D [2017 BDRip 1080p ] Анаглиф от R.G. HD-Films slaventi-69 Скачать
1 | 0
3D Фильмы [ 13.2 GB ] Стражи Галактики. Часть 2 3Д / Guardians of the Galaxy. Vol. 2 3D [2017 BDRip 1080p ] [Half OverUnder] DUB [] bober100 Скачать
1 | 0
Ultra HD (UHD: 2K, 4K, 8K) — видео сверхвысокой чёткости [ 34.29 GB ] Стражи Галактики. Часть 2 / Guardians of the Galaxy Vol. 2 [2017 UHD BDRip 2160p] [SDR] DUB [rus ukr] [] sheker187 Скачать
1 | 0
Ultra HD (UHD: 2K, 4K, 8K) — видео сверхвысокой чёткости [ 11.7 GB ] Стражи Галактики. Часть 2 / Guardians of the Galaxy Vol. 2 [2017 UHD BDRip 2160p] [rus ukr] [] sheker187 Скачать
2 | 0
Ultra HD (UHD: 2K, 4K, 8K) — видео сверхвысокой чёткости [ 67.26 GB ] Стражи Галактики. Часть 2 / Guardians of the Galaxy. Vol. 2 [2017 UHD Blu-ray 2160p] DUB [] bober100 Скачать
1 | 0
Ultra HD (UHD: 2K, 4K, 8K) — видео сверхвысокой чёткости [ 63.78 GB ] Стражи Галактики. Часть 2 / Guardians of the Galaxy Vol. 2 [2017 UHD BDRemux 2160p] DUB + AVO [Живов] sheker187 Скачать
1 | 0
Ultra HD (UHD: 2K, 4K, 8K) — видео сверхвысокой чёткости [ 47.92 GB ] Стражи Галактики. Часть 2 / Guardians of the Galaxy. Vol. 2 [2017 UHD BDRemux 2160p] DUB [] bober100 Скачать
3 | 0

28-11-2019 20:33  

Отключить всю рекламу на сайте

    Дорогой пользователь! Огромная просьба, поблагодарите релизера, оцените раздачу и оставьте свои комментарий, если Вы скачали Стражи Галактики. Часть 2 через торрент бесплатно! Внесите свою лепту в развитие PiratBit!
    Комментировать посты могут только пользователи прошедшие не сложную регистрацию
    Показать сообщения:    

    Стражи Галактики. Часть 2 через торрент
    Скачать бесплатно Стражи Галактики. Часть 2
    Стражи Галактики. Часть 2 скачать торрент
    Стражи Галактики. Часть 2 смотреть онлайн
    Cкачать фильм Стражи Галактики. Часть 2 бесплатно
    Стражи Галактики. Часть 2 скачать торрент в хорошем качестве
    Стражи Галактики. Часть 2 смотреть онлайн бесплатно в хорошем качестве


    Вы не можете начинать темы
    Вы не можете отвечать на сообщения
    Вы не можете редактировать свои сообщения
    Вы не можете удалять свои сообщения
    Вы не можете голосовать в опросах
    Вы не можете прикреплять файлы к сообщениям
    Вы можете скачивать файлы