Ссылка на приватное зеркало нашего сайта всего за 1$. Внимание количество ограничено!!!

2 сезон

iTunes

1 сезон

1

iTunes

iTunes

iTunes

1 сезон

RePack

30

ИГРА 18+

pack

ВАЖНО

!!Акция!!

Alien_RageХит недели

RePack

MK11
pack

Забери бонус

RePack

jed

!!Акция!!

Alien_Rage

RePack

fifa19

RePack

Assassins Creed: Odyssey

RePack

NEED FOR SPEED™ PAYBACK

4 сезон

9 сезон

Бесстыжие 9 сезон

Все сериалы

все сериалы на PB.wtf

RePack

FAR CRY 5
  

Стражи Галактики. Часть 2 / Guardians of the Galaxy Vol. 2 (Джеймс Ганн ) [2017, фантастика, боевик, приключения, BDRip 720p] Дубляж - [Лицензия / iTunes] pb.wtf

Стражи Галактики. Часть 2 через торрент pb.wtf

Размер: 7.48 GB | Добавлен: 3 года 2 мес. назад | Торрент скачан:1418 раз
Скачать  

09-08-2017 02:49 Стражи Галактики. Часть 2 Скачать торрент  

Стражи Галактики. Часть 2 / Guardians of the Galaxy Vol. 2«This summer, the galaxy won't save itself» Год выпуска: 2017
Страна: США
Жанр: фантастика, боевик, приключения
Продолжительность: 02:15:46
Перевод: Профессиональный (дублированный) iTunes
Субтитры: Русские (forced, full), английские (full)
Режиссер: Джеймс Ганн
В ролях:
Крис Пратт (Peter Quill / Star-Lord), Зои Салдана (Gamora), Дэйв Батиста (Drax), Вин Дизель (Baby Groot, озвучка), Брэдли Купер (Rocket, озвучка), Майкл Рукер (Yondu), Карен Гиллан (Nebula), Пом Клементьефф (Mantis), Элизабет Дебики (Ayesha), Курт Рассел (Ego), Сильвестр Сталлоне (Stakar Ogord), Крис Салливан (Taserface)
Описание:
Все в сборе: землянин Питер Квилл (Звездный Лорд), молчаливый громила Дракс, зеленокожая наемница Гамора, живое дерево Грут и говорящий енот. Герои не изменяют себе и с завидной регулярностью продолжают попадать в немыслимые ситуации, выпутываясь из них почти без ущерба (а иногда даже с пользой) для окружающих. На этот раз им предстоит раскрыть одну из самых главных тайн во всей Галактике: кто же на самом деле отец Питера Квилла?
Рейтинг:

MPAA: PG-13 - Детям до 13 лет просмотр не желателен
Качество: BDRip 720p
Формат: MKV
Видео: MPEG-4 AVC, 1280x536, 6000 Kbit/s, 23.976 fps
Аудио №1: 48 kHz, AC3, 5.1, 384 Kbps | Дублированный | iTunes | RUS
Аудио №2: 48 kHz, DTS, 5.1, 1510 Kbps | Оригинал | ENG
Навигация по главам: есть
General
Unique ID : 224265389870208800058200490972337402696 (0xA8B7F1676772E206A68AF8E2437FF348)
Complete name : D:\Guardians.of.the.Galaxy.Vol.2.2017.BDRip.720p.ExKinoRay.mkv
Format : Matroska
Format version : Version 4 / Version 2
File size : 7.48 GiB
Duration : 2 h 15 min
Overall bit rate : 7 890 kb/s
Encoded date : UTC 2017-08-09 01:54:54
Writing application : mkvmerge v14.0.0 ('Flow') 64bit
Writing library : libebml v1.3.4 + libmatroska v1.4.5

Video
ID : 1
Format : AVC
Format/Info : Advanced Video Codec
Format profile : High@L4.1
Format settings, CABAC : Yes
Format settings, ReFrames : 9 frames
Codec ID : V_MPEG4/ISO/AVC
Duration : 2 h 15 min
Bit rate : 6 000 kb/s
Width : 1 280 pixels
Height : 536 pixels
Display aspect ratio : 2.40:1
Frame rate mode : Constant
Frame rate : 23.976 (24000/1001) FPS
Color space : YUV
Chroma subsampling : 4:2:0
Bit depth : 8 bits
Scan type : Progressive
Bits/(Pixel*Frame) : 0.365
Stream size : 5.54 GiB (74%)
Writing library : x264 core 149 r2771+45 509cceb 7mod [8-bit@all X86_64]
Encoding settings : cabac=1 / ref=9 / deblock=1:-1:-1 / analyse=0x3:0x133 / me=umh / subme=11 / psy=1 / fade_compensate=0.00 / psy_rd=0.90:0.10 / mixed_ref=1 / me_range=32 / chroma_me=1 / trellis=2 / 8x8dct=1 / cqm=0 / deadzone=21,11 / fast_pskip=0 / chroma_qp_offset=-4 / threads=12 / lookahead_threads=2 / sliced_threads=0 / nr=0 / decimate=1 / interlaced=0 / bluray_compat=0 / constrained_intra=0 / fgo=0 / bframes=8 / b_pyramid=2 / b_adapt=2 / b_bias=0 / direct=3 / weightb=1 / open_gop=0 / weightp=2 / keyint=250 / keyint_min=23 / scenecut=40 / intra_refresh=0 / rc_lookahead=30 / rc=2pass / mbtree=0 / bitrate=6000 / ratetol=2.0 / qcomp=0.70 / qpmin=0:0:0 / qpmax=69:69:69 / qpstep=4 / cplxblur=20.0 / qblur=0.5 / vbv_maxrate=24000 / vbv_bufsize=24000 / nal_hrd=none / filler=0 / ip_ratio=1.40 / pb_ratio=1.30 / aq=3:1.00 / aq-sensitivity=10.00 / aq-factor=1.00:1.00:1.00 / aq2=0 / aq3=2:[0.50:0.50]:[0.50:0.50]:[0.50:0.50]:[0.50:0.50] / aq3-sensitivity=10.00 / aq3-factor=[1.00:1.00]:[1.00:1.00]:[1.00:1.00] / aq3-boundary=192:64:24
Language : English
Default : Yes
Forced : No

Audio #1
ID : 2
Format : AC-3
Format/Info : Audio Coding 3
Mode extension : CM (complete main)
Format settings, Endianness : Big
Codec ID : A_AC3
Duration : 2 h 15 min
Bit rate mode : Constant
Bit rate : 384 kb/s
Channel(s) : 6 channels
Channel positions : Front: L C R, Side: L R, LFE
Sampling rate : 48.0 kHz
Frame rate : 31.250 FPS (1536 spf)
Compression mode : Lossy
Stream size : 373 MiB (5%)
Title : iTunes
Language : Russian
Default : Yes
Forced : No

Audio #2
ID : 3
Format : DTS
Format/Info : Digital Theater Systems
Mode : 16
Format settings, Endianness : Big
Codec ID : A_DTS
Duration : 2 h 15 min
Bit rate mode : Constant
Bit rate : 1 509 kb/s
Channel(s) : 6 channels
Channel positions : Front: L C R, Side: L R, LFE
Sampling rate : 48.0 kHz
Frame rate : 93.750 FPS (512 spf)
Bit depth : 24 bits
Compression mode : Lossy
Stream size : 1.43 GiB (19%)
Title : Original
Language : English
Default : No
Forced : No

Text #1
ID : 4
Format : UTF-8
Codec ID : S_TEXT/UTF8
Codec ID/Info : UTF-8 Plain Text
Title : Forced
Language : Russian
Default : Yes
Forced : No

Text #2
ID : 5
Format : UTF-8
Codec ID : S_TEXT/UTF8
Codec ID/Info : UTF-8 Plain Text
Title : Full
Language : Russian
Default : No
Forced : No

Text #3
ID : 6
Format : UTF-8
Codec ID : S_TEXT/UTF8
Codec ID/Info : UTF-8 Plain Text
Title : Full
Language : English
Default : No
Forced : No

Menu
00:00:00.000 : en:00:00:00.000
00:09:56.179 : en:00:09:56.179
00:15:10.118 : en:00:15:10.118
00:22:14.083 : en:00:22:14.083
00:32:33.702 : en:00:32:33.702
00:36:52.127 : en:00:36:52.127
00:42:29.172 : en:00:42:29.172
00:48:03.464 : en:00:48:03.464
00:53:18.904 : en:00:53:18.904
00:58:45.939 : en:00:58:45.939
01:05:52.240 : en:01:05:52.240
01:11:12.435 : en:01:11:12.435
01:18:43.594 : en:01:18:43.594
01:23:55.322 : en:01:23:55.322
01:30:24.753 : en:01:30:24.753
01:39:36.179 : en:01:39:36.179
01:47:06.211 : en:01:47:06.211
01:54:21.605 : en:01:54:21.605
01:58:53.710 : en:01:58:53.710
02:07:13.459 : en:02:07:13.459


pb.wtf



Скачать Стражи Галактики. Часть 2 через торрент http://i95.fastpic.ru/big/2017/0809/e5/245934eb43c7de6c49ad2e98c3be36e5.png Скачать фильм Стражи Галактики. Часть 2 через торрент бесплантно в хорошем качестве Описание: Все в сборе: землянин Питер Квилл (Звездный Лорд), молчаливый громила Дракс, зеленокожая наемница Гамора, живое дерево Грут и ... 9.8 10 35
Info! Золотая раздача, скачанное не засчитывается.
Торрент: Зарегистрирован [2017-08-09 02:49] · скачан: 1 418 раз
Статус: √ проверено
Размер: 7.48 GB
Как cкачать? Как скачать Стражи Галактики. Часть 2 через торрент | qTorrent

% Раздел Тема Автор DL S | L
3D Фильмы [ 8.54 GB ] Стражи Галактики. Часть 2 в 3D / Guardians of the Galaxy Vol. 2 in 3D [2017 BDRip 1080p ] Анаглиф от R.G. HD-Films slaventi-69 Скачать
2 | 0
3D Фильмы [ 13.2 GB ] Стражи Галактики. Часть 2 3Д / Guardians of the Galaxy. Vol. 2 3D [2017 BDRip 1080p ] [Half OverUnder] DUB [] bober100 Скачать
1 | 0
Ultra HD (UHD: 2K, 4K, 8K) — видео сверхвысокой чёткости [ 34.29 GB ] Стражи Галактики. Часть 2 / Guardians of the Galaxy Vol. 2 [2017 UHD BDRip 2160p] [SDR] DUB [rus ukr] [] sheker187 Скачать
1 | 0
Ultra HD (UHD: 2K, 4K, 8K) — видео сверхвысокой чёткости [ 11.7 GB ] Стражи Галактики. Часть 2 / Guardians of the Galaxy Vol. 2 [2017 UHD BDRip 2160p] [rus ukr] [] sheker187 Скачать
2 | 0
Ultra HD (UHD: 2K, 4K, 8K) — видео сверхвысокой чёткости [ 67.26 GB ] Стражи Галактики. Часть 2 / Guardians of the Galaxy. Vol. 2 [2017 UHD Blu-ray 2160p] DUB [] bober100 Скачать
1 | 0
Ultra HD (UHD: 2K, 4K, 8K) — видео сверхвысокой чёткости [ 63.78 GB ] Стражи Галактики. Часть 2 / Guardians of the Galaxy Vol. 2 [2017 UHD BDRemux 2160p] DUB + AVO [Живов] sheker187 Скачать
1 | 0
Фильмы (HD 720p, 1080p) (48-60 fps) [ 3.39 GB ] Стражи Галактики. Часть 2 / Guardians of the Galaxy Vol. 2 [2017 BDRip - HEVC 1080p 12 bit 60 FPS] - [] dd2d3 Скачать
4 | 0

28-11-2019 20:33  

Отключить всю рекламу на сайте

11-08-2017 11:31 Стражи Галактики. Часть 2 Скачать торрент  

шлак?pb.wtf



20-08-2017 17:05 Стражи Галактики. Часть 2 Скачать торрент  

первая часть была лучше, но ради галочки посмотреть можноpb.wtf



26-09-2017 19:35 Стражи Галактики. Часть 2 Скачать торрент  

Вторая часть много лучше, смешнее, веселее. Только тема с папой гниловатым не ах. А так все лучше чем в первой части. Отличный фильм.... 8/10pb.wtf



    Дорогой пользователь! Огромная просьба, поблагодарите релизера, оцените раздачу и оставьте свои комментарий, если Вы скачали Стражи Галактики. Часть 2 через торрент бесплатно! Внесите свою лепту в развитие PiratBit!
    Комментировать посты могут только пользователи прошедшие не сложную регистрацию
    Показать сообщения:    

    Стражи Галактики. Часть 2 через торрент
    Скачать бесплатно Стражи Галактики. Часть 2
    Стражи Галактики. Часть 2 скачать торрент
    Стражи Галактики. Часть 2 смотреть онлайн
    Cкачать фильм Стражи Галактики. Часть 2 бесплатно
    Стражи Галактики. Часть 2 скачать торрент в хорошем качестве
    Стражи Галактики. Часть 2 смотреть онлайн бесплатно в хорошем качестве


    Вы не можете начинать темы
    Вы не можете отвечать на сообщения
    Вы не можете редактировать свои сообщения
    Вы не можете удалять свои сообщения
    Вы не можете голосовать в опросах
    Вы не можете прикреплять файлы к сообщениям
    Вы можете скачивать файлы