Ссылка на приватное зеркало всего за 1$. Внимание количество ограничено!!!

iTunes

1+1

iTunes

мы

WEB-DL

1

iTunes

Чернобыль

iTunes

Ральф против интернета

Лицензия

ПШазам

Лицензия

Оно 2

Лицензия

30
pack

Вам бонус

ВАЖНО

!!Акция!!

Alien_RageХит недели

RePack

Resident Evil 21

ИГРА 18+

pack

RePack

jed

!!Акция!!

Alien_Rage

RePack

fifa19

RePack

Assassins Creed: Odyssey

RePack

NEED FOR SPEED™ PAYBACK

3 сезон

9 сезон

Бесстыжие 9 сезон

Все сериалы

все сериалы на PB.wtf

RePack

FAR CRY 5
Ребята, катастрофически не хватает 1900р. для оплаты серверов за Октябрь (всвязи с блокировками трафик упал в 3 раза), 1-2р., выручайте.
  

Капитанская дочка (Владимир Каплуновский) [1958, СССР, драма, DVDRip от AVP Studio] pb.wtf

Капитанская дочка через торрент pb.wtf

Размер: 745 MB | Добавлен: 2 года 4 мес. назад | Торрент скачан:19 раз
Скачать  

09-08-2017 08:48 Капитанская дочка Скачать торрент  

Капитанская дочка
Страна: СССР
Производство: Мосфильм

Жанр: драма
Год выпуска: 1958
Продолжительность: 01:39:58

Перевод: Не требуется
Cубтитры: нет
Оригинальная аудиодорожка: русский

Режиссер: Владимир Каплуновский

В ролях:
Олег Стриженов, Сергей Лукьянов, Ия Арепина, Владимир Дорофеев, Ирина Зарубина, Анатолий Шишков, Вячеслав Шалевич, Павел Павленко, Борис Новиков, Лев Золотухин, Никифор Колофидин, Сергей Блинников, Владимир Соловьёв, Александра Денисова, Александр Гумбург, Юрий Катин-Ярцев, Сергей Троицкий, Павел Шпрингфельд, Варвара Мясникова...
Об актёрах подробней

Описание:
По одноименной повести А.С.Пушкина.
«Береги платье снову, а честь — смолоду» — напутствовал старик Гринев своего Петрушу (Олег Стриженов), отправляя служить в дальнюю Оренбургскую крепость. Здесь герой встретил и полюбил Машу...

Источник: DVD5 R5
Качество видео: DVDRip
Формат видео: AVI

Видео: 720x304 (2,35:1), 25 fps, XviD ~ 905 kbps avg, 0.165 bit/pixel
Аудио: 48 kHz, MP3 2.0, 128 kbps

Раздача от:
Общее
Полное имя : Kapitanskaya.dochka.1958.DVDRip-745_[New-team]_by_AVP_Studio.avi
Формат : AVI
Формат/Информация : Audio Video Interleave
Размер файла : 745 Мбайт
Продолжительность : 1 ч. 39 м.
Общий поток : 1042 Кбит/сек
Программа кодирования : VirtualDubMod 1.5.10.3 | www.virtualdub-fr.org || (build 2550/release)
Библиотека кодирования : VirtualDubMod build 2550/release

Видео
Идентификатор : 0
Формат : MPEG-4 Visual
Профиль формата : Advanced Simple@L5
Параметр BVOP формата : 1
Параметр QPel формата : Нет
Параметр GMC формата : Без точки перехода
Параметр матрицы формата : Выборочная
Идентификатор кодека : XVID
Идентификатор кодека/Подсказка : XviD
Продолжительность : 1 ч. 39 м.
Битрейт : 905 Кбит/сек
Ширина : 720 пикселей
Высота : 304 пикселя
Соотношение сторон : 2,35:1
Частота кадров : 25,000 кадров/сек
Цветовое пространство : YUV
Субдискретизация насыщенности : 4:2:0
Битовая глубина : 8 бит
Тип развёртки : Прогрессивная
Метод сжатия : С потерями
Бит/(Пиксели*Кадры) : 0.165
Размер потока : 647 Мбайт (87%)
Библиотека кодирования : XviD 73

Аудио
Идентификатор : 1
Формат : MPEG Audio
Версия формата : Version 1
Профиль формата : Layer 3
Идентификатор кодека : 55
Идентификатор кодека/Подсказка : MP3
Продолжительность : 1 ч. 39 м.
Вид битрейта : Постоянный
Битрейт : 128 Кбит/сек
Каналы : 2 канала
Частота : 48,0 КГц
Метод сжатия : С потерями
Размер потока : 91,5 Мбайт (12%)
Выравнивание : Соединение по промежуткам
Продолжительность промежутка : 40 мс. (1,00 видеокадр)
Время предзагрузки промежутка : 504 мс.
Библиотека кодирования : LAME3.99r
Настройки программы : -m s -V 4 -q 2 -lowpass 17 -b 128
pb.wtf



Скачать Капитанская дочка через торрент http://s019.radikal.ru/i615/1708/6c/d9f05b8c4bbf.png Скачать фильм Капитанская дочка через торрент бесплантно в хорошем качестве Описание:По одноименной повести А.С.Пушкина.«Береги платье снову, а честь — смолоду» — напутствовал старик Гринев своего Петрушу (Олег ... 10 10 1
Info! Золотая раздача, скачанное не засчитывается.
Торрент: Зарегистрирован [2017-08-09 08:48] · скачан: 19 раз
Статус: √ проверено
Размер: 745 MB
Как cкачать? Как скачать Капитанская дочка через торрент | qTorrent

% Раздел Тема Автор DL S | L
Кино СССР [ 1.25 GB ] Капитанская дочка [1958 СССР DVDRip-AVC от AVP Studio] AVP Studio Скачать
1 | 0
Кино СССР [ 1.09 GB ] Капитанская дочка [1958 СССР DVDRip от AVP Studio] AVP Studio Скачать
1 | 0

28-11-2019 20:33  

Отключить всю рекламу на сайте

    Дорогой пользователь! Огромная просьба, поблагодарите релизера, оцените раздачу и оставьте свои комментарий, если Вы скачали Капитанская дочка через торрент бесплатно! Внесите свою лепту в развитие PiratBit!
    Комментировать посты могут только пользователи прошедшие не сложную регистрацию
    Показать сообщения:    

    Капитанская дочка через торрент
    Скачать бесплатно Капитанская дочка
    Капитанская дочка скачать торрент
    Капитанская дочка смотреть онлайн
    Cкачать фильм Капитанская дочка бесплатно
    Капитанская дочка скачать торрент в хорошем качестве
    Капитанская дочка смотреть онлайн бесплатно в хорошем качестве


    Вы не можете начинать темы
    Вы не можете отвечать на сообщения
    Вы не можете редактировать свои сообщения
    Вы не можете удалять свои сообщения
    Вы не можете голосовать в опросах
    Вы не можете прикреплять файлы к сообщениям
    Вы можете скачивать файлы