Ссылка на приватное зеркало нашего сайта всего за 1$. Внимание количество ограничено!!!

2 сезон

iTunes

1 сезон

1

2 сезон

2 сезон

iTunes

1 сезон

RePack

30

Ultimate

ВАЖНО

ИГРА 18+

pack

RePack

MK11
pack

Забери бонус

RePack

jed

!!Акция!!

Alien_Rage

RePack

fifa19

RePack

Assassins Creed: Odyssey

RePack

NEED FOR SPEED™ PAYBACK

4 сезон

9 сезон

Бесстыжие 9 сезон

Все сериалы

все сериалы на PB.wtf

RePack

FAR CRY 5
  

Почему он? / Why Him? (Джон Гамбург) [2016, Комедия, BD Remux 1080p] [Лицензия] DUB+AVO pb.wtf

Почему он? через торрент pb.wtf

Размер: 29.15 GB | Добавлен: 3 года 3 мес. назад | Торрент скачан:46 раз
Скачать  

09-08-2017 09:58 Почему он? Скачать торрент  

Почему он? / Why Him?Год выпуска: 2016
Страна: США
Жанр: Комедия
Продолжительность: 01:51:12

Перевод:

#1: Дублированный | Лицензия
#2: Авторский | Вячеслав Котов

Субтитры: Русские (forced, full), английские (full, SDH Colored)

Режиссер: Джон Гамбург

rating

В ролях:

Зои Дойч, Джеймс Франко, Тэнджи Эмброуз, Седрик-развлекатель, Боб Стефенсон, Брайан Крэнстон, Меган Маллалли, Зак Перлман, Гриффин Глюк, Джи Янг Хань

Описание:

Строгий глава семейства, проповедующий идеалы морали и высокие профессиональные стандарты, пускается во все тяжкие после знакомства с первым парнем своей дочери. С виду интеллигентный молодой человек оказывается не только миллиардером, плейбоем и филантропом, но и активным сторонником контролируемой шизофрении и вообще очень интересной личностью. Его эксцентричное поведение вызывает непонимание у "старой школы", перерастающее в открытое соперничество двух поколений.

Качество: BD Remux 1080p
Формат: MKV
Видео кодек: H.264
Аудио кодек: AC3/DTS

Видео: MPEG-4 AVC, 1920x1080, 27.7 Mbit/s, 23.976 fps
Аудио#1: 48 kHz, DTS, 5.1, 768 Kbps | Дублированный | RUS |
Аудио#2: 48 kHz, AC3, 5.1, 448 Kbps | Дублированный | RUS |
Аудио#3: 48 kHz, DTS-HD MA, 5.1, 4347 Kbps | Авторский (ненорм. лексика) | RUS |
Аудио#4: 48 kHz, DTS-HD MA, 7.1, 4241 Kbps | Оригинал | ENG |
скриншот  скриншот  скриншот  скриншот  скриншот  

General
Unique ID : 214412301602301224793961707991177676973 (0xA14E4EA551F80B5AAD3C667C0590C8AD)
Complete name : F:VideoWhy.Him.2016.Lic.BDREMUX.1080p.ExKinoRay.mkv
Format : Matroska
Format version : Version 4 / Version 2
File size : 29.1 GiB
Duration : 1 h 51 min
Overall bit rate mode : Variable
Overall bit rate : 37.5 Mb/s
Encoded date : UTC 2017-04-21 16:31:22
Writing application : mkvmerge v10.0.0 ('To Drown In You') 64bit
Writing library : libebml v1.3.4 + libmatroska v1.4.5

Video
ID : 1
Format : AVC
Format/Info : Advanced Video Codec
Format profile : High@L4.1
Format settings, CABAC : Yes
Format settings, ReFrames : 2 frames
Codec ID : V_MPEG4/ISO/AVC
Duration : 1 h 51 min
Bit rate mode : Variable
Bit rate : 27.7 Mb/s
Width : 1 920 pixels
Height : 1 080 pixels
Display aspect ratio : 16:9
Frame rate mode : Constant
Frame rate : 23.976 (24000/1001) FPS
Color space : YUV
Chroma subsampling : 4:2:0
Bit depth : 8 bits
Scan type : Progressive
Bits/(Pixel*Frame) : 0.557
Stream size : 21.5 GiB (74%)
Language : English
Default : Yes
Forced : No

Audio #1
ID : 2
Format : DTS
Format/Info : Digital Theater Systems
Mode : 16
Format settings, Endianness : Big
Codec ID : A_DTS
Duration : 1 h 51 min
Bit rate mode : Constant
Bit rate : 768 kb/s
Channel(s) : 6 channels
Channel positions : Front: L C R, Side: L R, LFE
Sampling rate : 48.0 kHz
Frame rate : 93.750 FPS (512 spf)
Bit depth : 24 bits
Compression mode : Lossy
Stream size : 611 MiB (2%)
Title : Dub [License]
Language : Russian
Default : Yes
Forced : No

Audio #2
ID : 3
Format : AC-3
Format/Info : Audio Coding 3
Format settings, Endianness : Big
Codec ID : A_AC3
Duration : 1 h 51 min
Bit rate mode : Constant
Bit rate : 448 kb/s
Channel(s) : 6 channels
Channel positions : Front: L C R, Side: L R, LFE
Sampling rate : 48.0 kHz
Frame rate : 31.250 FPS (1536 spf)
Bit depth : 16 bits
Compression mode : Lossy
Stream size : 356 MiB (1%)
Title : Dub [License]
Language : Russian
Service kind : Complete Main
Default : No
Forced : No

Audio #3
ID : 4
Format : DTS
Format/Info : Digital Theater Systems
Format profile : MA / Core
Mode : 16
Format settings, Endianness : Big
Codec ID : A_DTS
Duration : 1 h 51 min
Bit rate mode : Variable / Constant
Bit rate : 4 347 kb/s / 1 509 kb/s
Channel(s) : 8 channels / 6 channels
Channel positions : Front: L C R, Side: L R, Back: L R, LFE / Front: L C R, Side: L R, LFE
Sampling rate : 48.0 kHz
Frame rate : 93.750 FPS (512 spf)
Bit depth : 24 bits
Compression mode : Lossless / Lossy
Stream size : 3.38 GiB (12%)
Title : AVO [Kotov]
Language : Russian
Default : No
Forced : No

Audio #4
ID : 5
Format : DTS
Format/Info : Digital Theater Systems
Format profile : MA / Core
Mode : 16
Format settings, Endianness : Big
Codec ID : A_DTS
Duration : 1 h 51 min
Bit rate mode : Variable / Constant
Bit rate : 4 241 kb/s / 1 509 kb/s
Channel(s) : 8 channels / 6 channels
Channel positions : Front: L C R, Side: L R, Back: L R, LFE / Front: L C R, Side: L R, LFE
Sampling rate : 48.0 kHz
Frame rate : 93.750 FPS (512 spf)
Bit depth : 24 bits
Compression mode : Lossless / Lossy
Stream size : 3.29 GiB (11%)
Title : Original
Language : English
Default : No
Forced : No

Text #1
ID : 6
Format : UTF-8
Codec ID : S_TEXT/UTF8
Codec ID/Info : UTF-8 Plain Text
Duration : 1 h 37 min
Bit rate : 0 b/s
Count of elements : 7
Stream size : 215 Bytes (0%)
Title : Forced
Language : Russian
Default : Yes
Forced : No

Text #2
ID : 7
Format : UTF-8
Codec ID : S_TEXT/UTF8
Codec ID/Info : UTF-8 Plain Text
Duration : 1 h 50 min
Bit rate : 135 b/s
Count of elements : 1681
Stream size : 109 KiB (0%)
Title : Full
Language : Russian
Default : No
Forced : No

Text #3
ID : 8
Format : UTF-8
Codec ID : S_TEXT/UTF8
Codec ID/Info : UTF-8 Plain Text
Duration : 1 h 49 min
Bit rate : 95 b/s
Count of elements : 2721
Stream size : 76.4 KiB (0%)
Title : Full
Language : English
Default : No
Forced : No

Text #4
ID : 9
Format : UTF-8
Codec ID : S_TEXT/UTF8
Codec ID/Info : UTF-8 Plain Text
Duration : 1 h 49 min
Bit rate : 113 b/s
Count of elements : 2817
Stream size : 91.4 KiB (0%)
Title : SDH (Colored)
Language : English
Default : No
Forced : No

Menu
00:00:00.000 : en:00:00:00.000
00:05:00.550 : en:00:05:00.550
00:09:34.365 : en:00:09:34.365
00:12:33.711 : en:00:12:33.711
00:18:06.961 : en:00:18:06.961
00:21:08.642 : en:00:21:08.642
00:25:57.264 : en:00:25:57.264
00:30:19.818 : en:00:30:19.818
00:35:45.101 : en:00:35:45.101
00:42:06.482 : en:00:42:06.482
00:45:49.705 : en:00:45:49.705
00:49:13.284 : en:00:49:13.284
00:55:03.634 : en:00:55:03.634
00:57:58.892 : en:00:57:58.892
01:03:01.069 : en:01:03:01.069
01:08:44.871 : en:01:08:44.871
01:12:01.108 : en:01:12:01.108
01:19:14.625 : en:01:19:14.625
01:23:03.812 : en:01:23:03.812
01:26:36.358 : en:01:26:36.358
01:31:44.916 : en:01:31:44.916
01:35:31.684 : en:01:35:31.684
01:40:05.416 : en:01:40:05.416
01:45:13.807 : en:01:45:13.807

pb.wtf



Скачать Почему он? через торрент http://s020.radikal.ru/i721/1703/cd/07abbb408d5d.jpg Скачать фильм Почему он? через торрент бесплантно в хорошем качестве Описание: Строгий глава семейства, проповедующий идеалы морали и высокие профессиональные стандарты, пускается во все тяжкие после ... 10 10 3
Торрент: Зарегистрирован [2017-08-09 09:58] · скачан: 46 раз
Статус: √ проверено
Размер: 29.15 GB
Как cкачать? Как скачать Почему он? через торрент | qTorrent

28-11-2019 20:33  

Отключить всю рекламу на сайте

    Дорогой пользователь! Огромная просьба, поблагодарите релизера, оцените раздачу и оставьте свои комментарий, если Вы скачали Почему он? через торрент бесплатно! Внесите свою лепту в развитие PiratBit!
    Комментировать посты могут только пользователи прошедшие не сложную регистрацию
    Показать сообщения:    

    Почему он? через торрент
    Скачать бесплатно Почему он?
    Почему он? скачать торрент
    Почему он? смотреть онлайн
    Cкачать фильм Почему он? бесплатно
    Почему он? скачать торрент в хорошем качестве
    Почему он? смотреть онлайн бесплатно в хорошем качестве


    Вы не можете начинать темы
    Вы не можете отвечать на сообщения
    Вы не можете редактировать свои сообщения
    Вы не можете удалять свои сообщения
    Вы не можете голосовать в опросах
    Вы не можете прикреплять файлы к сообщениям
    Вы можете скачивать файлы