2 сезон

iTunes

1 сезон

1

iTunes

iTunes

iTunes

1 сезон

RePack

30

ИГРА 18+

pack

ВАЖНО

!!Акция!!

Alien_RageХит недели

RePack

MK11
pack

Забери бонус

RePack

jed

!!Акция!!

Alien_Rage

RePack

fifa19

RePack

Assassins Creed: Odyssey

RePack

NEED FOR SPEED™ PAYBACK

4 сезон

9 сезон

Бесстыжие 9 сезон

Все сериалы

все сериалы на PB.wtf

RePack

FAR CRY 5
  

Что гложет Гилберта Грейпа? / What's Eating Gilbert Grape (Лассе Халльстрём) [1993, драма, BDRip 720p by msltel] MVO, DVO, AVO pb.wtf

Что гложет Гилберта Грейпа? через торрент pb.wtf

Размер: 6.15 GB | Добавлен: 3 года 2 мес. назад | Торрент скачан:114 раз
Скачать  

10-08-2017 06:47 Что гложет Гилберта Грейпа? Скачать торрент  

Название: Что гложет Гилберта Грейпа?
Оригинальное название: What's Eating Gilbert Grape
Год выпуска: 1993
Страна: США
Жанр: драма
Продолжительность: 01:58:03
Перевод: профессиональный многоголосый, профессиональный двухголосый, авторский

Режиссер: Лассе Халльстрём
В ролях: Джонни Депп, Леонардо ДиКаприо, Джульетт Льюис, Мэри Стинберген, Дарлен Кэйтс, Лора Хэррингтон, Мэри Кейт Шеллхардт, Кевин Тай, Джон С. Райлли, Криспин Гловер

О фильме: Гилберт Грейп живёт в штате Айова, в крошечном городке с населением в тысячу жителей. У него две сестры, слабоумный брат и толстуха-мать. Гилберт тянет лямку в магазине и крутит роман с замужней женщиной. Но всё меняется, когда в городок приезжает Беки... Фильм снят по мотивам романа Питера Хеджеса «Что гложет Гилберта Грейпа?» (What`s Eating Gilbert Grape, 1991).



Качество: BDRip 720p
Формат: MKV
Видео: MPEG-4 AVC, 5994 Кбит/с, 1280x720, 23.976 кадр/с
Аудио 1: русский, AC3, 384 kbps, 6 ch, 48 kHz [профессиональный многоголосый, Videogram, R5]
Аудио 2: русский, AC3, 192 kbps, 2 ch, 48 kHz [профессиональный двухголосый]
Аудио 3: русский, AC3, 448 kbps, 6 ch, 48 kHz [авторский, Сергей Визгунов]
Аудио 4: английский, AC3, 448 kbps, 6 ch, 48 kHz [оригинал]
Субтитры 1: русские
Субтитры 2: английские
Имеются неименованные главы/чаптеры.
Общее
Уникальный идентификатор : 217280943913126964976792846185951402426 (0xA376C9A1A43069B5BCDBAAFEB0E819BA)
Полное имя : D:\Video\Что гложет Гилберта Грейпа.2003.BDRip.720p by msltel.mkv
Формат : Matroska
Версия формата : Version 4 / Version 2
Размер файла : 6,15 Гбайт
Продолжительность : 1 ч. 58 м.
Общий поток : 7463 Кбит/сек
Название фильма : Rip by msltel
Дата кодирования : UTC 2017-08-10 01:52:45
Программа кодирования : mkvmerge v8.2.0 ('World of Adventure') 64bit
Библиотека кодирования : libebml v1.3.1 + libmatroska v1.4.2

Видео
Идентификатор : 1
Формат : AVC
Формат/Информация : Advanced Video Codec
Профиль формата : High@L4.1
Параметр CABAC формата : Да
Параметр RefFrames формата : 9 кадров
Идентификатор кодека : V_MPEG4/ISO/AVC
Продолжительность : 1 ч. 57 м.
Битрейт : 5994 Кбит/сек
Ширина : 1280 пикселей
Высота : 720 пикселей
Соотношение сторон : 16:9
Режим частоты кадров : Постоянный
Частота кадров : 23,976 (24000/1001) кадра/сек
Цветовое пространство : YUV
Субдискретизация насыщенности : 4:2:0
Битовая глубина : 8 бит
Тип развёртки : Прогрессивная
Бит/(Пиксели*Кадры) : 0.271
Размер потока : 4,94 Гбайт (80%)
Библиотека кодирования : x264 core 146 r2538 121396c
Настройки программы : cabac=1 / ref=9 / deblock=1:-3:-2 / analyse=0x3:0x113 / me=umh / subme=11 / psy=1 / psy_rd=1.00:0.15 / mixed_ref=1 / me_range=32 / chroma_me=1 / trellis=2 / 8x8dct=1 / cqm=0 / deadzone=21,11 / fast_pskip=0 / chroma_qp_offset=-3 / threads=6 / lookahead_threads=1 / sliced_threads=0 / nr=0 / decimate=1 / interlaced=0 / bluray_compat=0 / constrained_intra=0 / bframes=9 / b_pyramid=2 / b_adapt=2 / b_bias=0 / direct=1 / weightb=1 / open_gop=0 / weightp=2 / keyint=230 / keyint_min=23 / scenecut=40 / intra_refresh=0 / rc_lookahead=40 / rc=crf / mbtree=0 / crf=20.4 / qcomp=0.60 / qpmin=0 / qpmax=69 / qpstep=4 / vbv_maxrate=62500 / vbv_bufsize=78125 / crf_max=0.0 / nal_hrd=none / filler=0 / ip_ratio=1.40 / pb_ratio=1.30 / aq=1:1.00
Язык : English
Default : Да
Forced : Нет

Аудио #1
Идентификатор : 2
Формат : AC-3
Формат/Информация : Audio Coding 3
Параметр Endianness формата : Big
Идентификатор кодека : A_AC3
Продолжительность : 1 ч. 57 м.
Вид битрейта : Постоянный
Битрейт : 384 Кбит/сек
Каналы : 6 каналов
Расположение каналов : Front: L C R, Side: L R, LFE
Частота : 48,0 КГц
Частота кадров : 31,250 кадров/сек (1536 SPF)
Битовая глубина : 16 бит
Метод сжатия : С потерями
Размер потока : 324 Мбайт (5%)
Заголовок : MVO (Videogram, R5)
Язык : Russian
ServiceKind/String : Complete Main
Default : Да
Forced : Нет

Аудио #2
Идентификатор : 3
Формат : AC-3
Формат/Информация : Audio Coding 3
Параметр Endianness формата : Big
Идентификатор кодека : A_AC3
Продолжительность : 1 ч. 58 м.
Вид битрейта : Постоянный
Битрейт : 192 Кбит/сек
Каналы : 2 канала
Расположение каналов : Front: L R
Частота : 48,0 КГц
Частота кадров : 31,250 кадров/сек (1536 SPF)
Битовая глубина : 16 бит
Метод сжатия : С потерями
Размер потока : 162 Мбайт (3%)
Заголовок : DVO
Язык : Russian
ServiceKind/String : Complete Main
Default : Нет
Forced : Нет

Аудио #3
Идентификатор : 4
Формат : AC-3
Формат/Информация : Audio Coding 3
Параметр Endianness формата : Big
Идентификатор кодека : A_AC3
Продолжительность : 1 ч. 57 м.
Вид битрейта : Постоянный
Битрейт : 448 Кбит/сек
Каналы : 6 каналов
Расположение каналов : Front: L C R, Side: L R, LFE
Частота : 48,0 КГц
Частота кадров : 31,250 кадров/сек (1536 SPF)
Битовая глубина : 16 бит
Метод сжатия : С потерями
Размер потока : 378 Мбайт (6%)
Заголовок : AVO (Сергей Визгунов)
Язык : Russian
ServiceKind/String : Complete Main
Default : Нет
Forced : Нет

Аудио #4
Идентификатор : 5
Формат : AC-3
Формат/Информация : Audio Coding 3
Параметр Endianness формата : Big
Идентификатор кодека : A_AC3
Продолжительность : 1 ч. 57 м.
Вид битрейта : Постоянный
Битрейт : 448 Кбит/сек
Каналы : 6 каналов
Расположение каналов : Front: L C R, Side: L R, LFE
Частота : 48,0 КГц
Частота кадров : 31,250 кадров/сек (1536 SPF)
Битовая глубина : 16 бит
Метод сжатия : С потерями
Размер потока : 378 Мбайт (6%)
Заголовок : original
Язык : English
ServiceKind/String : Complete Main
Default : Нет
Forced : Нет

Текст #1
Идентификатор : 6
Формат : UTF-8
Идентификатор кодека : S_TEXT/UTF8
Идентификатор кодека/Информация : UTF-8 Plain Text
Продолжительность : 1 ч. 54 м.
Битрейт : 78 бит/сек
ElementCount : 1012
Размер потока : 65,4 Кбайт (0%)
Заголовок : русские
Язык : Russian
Default : Нет
Forced : Нет

Текст #2
Идентификатор : 7
Формат : UTF-8
Идентификатор кодека : S_TEXT/UTF8
Идентификатор кодека/Информация : UTF-8 Plain Text
Продолжительность : 1 ч. 54 м.
Битрейт : 56 бит/сек
ElementCount : 1343
Размер потока : 47,0 Кбайт (0%)
Заголовок : английские
Язык : English
Default : Нет
Forced : Нет

Меню
00:00:00.000 : :00:00:00.000
00:08:25.046 : :00:08:25.046
00:15:56.622 : :00:15:56.622
00:24:02.107 : :00:24:02.107
00:30:40.380 : :00:30:40.380
00:37:58.193 : :00:37:58.193
00:44:11.899 : :00:44:11.899
00:52:58.425 : :00:52:58.425
00:58:43.353 : :00:58:43.353
01:06:41.539 : :01:06:41.539
01:16:16.989 : :01:16:16.989
01:21:34.848 : :01:21:34.848
01:31:46.376 : :01:31:46.376
01:38:47.255 : :01:38:47.255
01:44:51.160 : :01:44:51.160
01:54:53.386 : :01:54:53.386
pb.wtf



Скачать Что гложет Гилберта Грейпа? через торрент http://s019.radikal.ru/i629/1708/81/9fed815c57a5.jpg Скачать фильм Что гложет Гилберта Грейпа? через торрент бесплантно в хорошем качестве О фильме: Гилберт Грейп живёт в штате Айова, в крошечном городке с населением в тысячу жителей. У него две сестры, слабоумный брат и ... 10 10 6
Info! Золотая раздача, скачанное не засчитывается.
Торрент: Зарегистрирован [2017-08-10 06:47] · скачан: 114 раз
Статус: √ проверено
Размер: 6.15 GB
Как cкачать? Как скачать Что гложет Гилберта Грейпа? через торрент | qTorrent

28-11-2019 20:33  

Отключить всю рекламу на сайте

    Дорогой пользователь! Огромная просьба, поблагодарите релизера, оцените раздачу и оставьте свои комментарий, если Вы скачали Что гложет Гилберта Грейпа? через торрент бесплатно! Внесите свою лепту в развитие PiratBit!
    Комментировать посты могут только пользователи прошедшие не сложную регистрацию
    Показать сообщения:    

    Что гложет Гилберта Грейпа? через торрент
    Скачать бесплатно Что гложет Гилберта Грейпа?
    Что гложет Гилберта Грейпа? скачать торрент
    Что гложет Гилберта Грейпа? смотреть онлайн
    Cкачать фильм Что гложет Гилберта Грейпа? бесплатно
    Что гложет Гилберта Грейпа? скачать торрент в хорошем качестве
    Что гложет Гилберта Грейпа? смотреть онлайн бесплатно в хорошем качестве


    Вы не можете начинать темы
    Вы не можете отвечать на сообщения
    Вы не можете редактировать свои сообщения
    Вы не можете удалять свои сообщения
    Вы не можете голосовать в опросах
    Вы не можете прикреплять файлы к сообщениям
    Вы можете скачивать файлы