Ссылка на приватное зеркало всего за 1$. Внимание количество ограничено!!!

iTunes

iTunes

iTunes

1

iTunes

iTunes

iTunes

iTunes

iTunes

30
pack

$ от Little Big

ВАЖНО

!!Акция!!

Alien_RageХит недели

RePack

Resident Evil 21

ИГРА 18+

pack

RePack

jed

!!Акция!!

Alien_Rage

RePack

fifa19

RePack

Assassins Creed: Odyssey

RePack

NEED FOR SPEED™ PAYBACK

4 сезон

9 сезон

Бесстыжие 9 сезон

Все сериалы

все сериалы на PB.wtf

RePack

FAR CRY 5
  

Парни со стволами / War Dogs (Тодд Филлипс) [2016 г., драма, комедия, криминал, WEB-DLRip 720p] Dub, AVO - [Open Matte] - ExKinoRay pb.wtf

Парни со стволами через торрент pb.wtf

Раздают: 1 [ 20 KB/s ]
Размер: 4.46 GB | Добавлен: 2 года 11 мес. назад | Торрент скачан:439 раз
Скачать  

10-08-2017 12:04 Парни со стволами Скачать торрент  

Название: Парни со стволами
Оригинальное название: War Dogs
Год выпуска: 2016
Жанр: Драма, комедия, криминал, военный
Страна: США
Студия: Green Hat Films, Mark Gordon Company, The
Продолжительность: 01:54:16
Перевод: Профессиональный (полное дублирование) [Лицензия], авторский (Есарев, Немахов)
Субтитры: Русские форсированные (на надписи и прочее и полные), английские
Режиссер: Тодд Филлипс
В ролях: Майлз Теллер, Джона Хилл, Ана де Армас, Кевин Поллак, Брэдли Купер, Джейби Бланк, Шон Тоуб

Описание: В погоне за баснословной прибылью Эфраим и Дэвид окунаются в безумный мир торговцев оружием. Им предстоит побывать в лучших отелях, ездить на самых престижных автомобилях и… скрываться на грузовике от разъяренных моджахедов. Еще вчера Эфраим и Дэвид были обычными «укурками», а сегодня они работают на Пентагон и зарабатывают миллионы. И не важно, что они ведут игру со смертью.

rating

Формат: MKV
Качество: WEB-DLRip 720p
Видео: MPEG-4 AVC, 1280x720 (16:9), 3027 Kbit/s, 23.976 fps, 0,137 bpp
Звук:
Аудио 1: 48 kHz, AC3, 5.1, 640 Kbps | RUS - Лицензия
Аудио 2: 48 kHz, AC3, 5.1, 640 Kbps | RUS - Есарев
Аудио 3: 48 kHz, AC3, 5.1, 640 Kbps | RUS - Немахов
Аудио 4: 48 kHz, AC3, 5.1, 640 Kbps | ENG

Примечания:
*Open Matte версия фильма, имеет большее наполнение кадра, по сравнению с блюрэй.
General
Unique ID : 204364274524338880974653221155801628984 (0x99BF20A989A5BE788D7512FC3DCB8138)
Complete name : D:\War.Dogs.2016.3xRus.720p.OpenMate.ExKinoRay.mkv
Format : Matroska
Format version : Version 2
File size : 4.46 GiB
Duration : 1 h 54 min
Overall bit rate : 5 587 kb/s
Movie name : War Dogs (2016) from ExKinoRay
Encoded date : UTC 2017-08-10 11:11:58
Writing application : mkvmerge v5.6.0 ('Kenya Kane') built on May 27 2012 16:44:04
Writing library : libebml v1.2.3 + libmatroska v1.3.0

Video
ID : 1
Format : AVC
Format/Info : Advanced Video Codec
Format profile : High@L4.1
Format settings, CABAC : Yes
Format settings, ReFrames : 9 frames
Codec ID : V_MPEG4/ISO/AVC
Duration : 1 h 54 min
Bit rate : 3 027 kb/s
Width : 1 280 pixels
Height : 720 pixels
Display aspect ratio : 16:9
Frame rate mode : Constant
Frame rate : 23.976 (24000/1001) FPS
Color space : YUV
Chroma subsampling : 4:2:0
Bit depth : 8 bits
Scan type : Progressive
Bits/(Pixel*Frame) : 0.137
Stream size : 2.33 GiB (52%)
Title : Enigma
Writing library : x264 core 148 r2638 7599210
Encoding settings : cabac=1 / ref=9 / deblock=1:-3:-3 / analyse=0x3:0x113 / me=umh / subme=10 / psy=1 / psy_rd=1.00:0.05 / mixed_ref=1 / me_range=32 / chroma_me=1 / trellis=2 / 8x8dct=1 / cqm=0 / deadzone=21,11 / fast_pskip=1 / chroma_qp_offset=-3 / threads=12 / lookahead_threads=3 / sliced_threads=0 / nr=0 / decimate=0 / interlaced=0 / bluray_compat=0 / constrained_intra=0 / bframes=10 / b_pyramid=2 / b_adapt=2 / b_bias=0 / direct=3 / weightb=1 / open_gop=0 / weightp=2 / keyint=240 / keyint_min=23 / scenecut=40 / intra_refresh=0 / rc_lookahead=50 / rc=2pass / mbtree=0 / bitrate=3027 / ratetol=1.0 / qcomp=0.60 / qpmin=0 / qpmax=51 / qpstep=4 / cplxblur=20.0 / qblur=0.5 / vbv_maxrate=50000 / vbv_bufsize=62500 / nal_hrd=none / filler=0 / ip_ratio=1.40 / pb_ratio=1.30 / aq=1:1.00
Default : Yes
Forced : No
Statistics Tags Issue : mkvmerge v8.5.2 ('Crosses') 32bit 2017-08-10 06:06:47 / mkvmerge v5.6.0 ('Kenya Kane') built on May 27 2012 16:44:04 2017-08-10 11:11:58
FromStats_BitRate : 3025660
FromStats_Duration : 01:54:16.058000000
FromStats_FrameCount : 164381
FromStats_StreamSize : 2593013266

Audio #1
ID : 2
Format : AC-3
Format/Info : Audio Coding 3
Mode extension : CM (complete main)
Format settings, Endianness : Big
Codec ID : A_AC3
Duration : 1 h 54 min
Bit rate mode : Constant
Bit rate : 640 kb/s
Channel(s) : 6 channels
Channel positions : Front: L C R, Side: L R, LFE
Sampling rate : 48.0 kHz
Frame rate : 31.250 FPS (1536 spf)
Compression mode : Lossy
Stream size : 523 MiB (11%)
Title : Dub (Лицензия)
Language : Russian
Default : Yes
Forced : No

Audio #2
ID : 3
Format : AC-3
Format/Info : Audio Coding 3
Mode extension : CM (complete main)
Format settings, Endianness : Big
Codec ID : A_AC3
Duration : 1 h 54 min
Bit rate mode : Constant
Bit rate : 640 kb/s
Channel(s) : 6 channels
Channel positions : Front: L C R, Side: L R, LFE
Sampling rate : 48.0 kHz
Frame rate : 31.250 FPS (1536 spf)
Compression mode : Lossy
Stream size : 523 MiB (11%)
Title : AVO (Esarev)
Language : Russian
Default : No
Forced : No

Audio #3
ID : 4
Format : AC-3
Format/Info : Audio Coding 3
Mode extension : CM (complete main)
Format settings, Endianness : Big
Codec ID : A_AC3
Duration : 1 h 54 min
Bit rate mode : Constant
Bit rate : 640 kb/s
Channel(s) : 6 channels
Channel positions : Front: L C R, Side: L R, LFE
Sampling rate : 48.0 kHz
Frame rate : 31.250 FPS (1536 spf)
Compression mode : Lossy
Stream size : 523 MiB (11%)
Title : AVO (Nemaxov)
Language : Russian
Default : No
Forced : No

Audio #4
ID : 5
Format : AC-3
Format/Info : Audio Coding 3
Mode extension : CM (complete main)
Format settings, Endianness : Big
Codec ID : A_AC3
Duration : 1 h 54 min
Bit rate mode : Constant
Bit rate : 640 kb/s
Channel(s) : 6 channels
Channel positions : Front: L C R, Side: L R, LFE
Sampling rate : 48.0 kHz
Frame rate : 31.250 FPS (1536 spf)
Compression mode : Lossy
Stream size : 523 MiB (11%)
Language : English
Default : No
Forced : No

Text #1
ID : 6
Format : UTF-8
Codec ID : S_TEXT/UTF8
Codec ID/Info : UTF-8 Plain Text
Title : Forced
Language : Russian
Default : Yes
Forced : No

Text #2
ID : 7
Format : UTF-8
Codec ID : S_TEXT/UTF8
Codec ID/Info : UTF-8 Plain Text
Title : Full
Language : Russian
Default : No
Forced : No

Text #3
ID : 8
Format : UTF-8
Codec ID : S_TEXT/UTF8
Codec ID/Info : UTF-8 Plain Text
Language : English
Default : No
Forced : No

Text #4
ID : 9
Format : UTF-8
Codec ID : S_TEXT/UTF8
Codec ID/Info : UTF-8 Plain Text
Language : English
Default : No
Forced : No
Релиз от:

Автор релиза: pb.wtf



Скачать Парни со стволами через торрент http://s019.radikal.ru/i643/1611/b7/fd49f2b44f76.jpg Скачать фильм Парни со стволами через торрент бесплантно в хорошем качестве Описание: В погоне за баснословной прибылью Эфраим и Дэвид окунаются в безумный мир торговцев оружием. Им предстоит побывать в лучших ... 9.9 10 10
Info! Золотая раздача, скачанное не засчитывается.
Торрент: Зарегистрирован [2017-08-10 12:04] · скачан: 439 раз
Статус: √ проверено
Размер: 4.46 GB
Как cкачать? Как скачать Парни со стволами через торрент | qTorrent

28-11-2019 20:33  

Отключить всю рекламу на сайте

11-08-2017 11:41 Парни со стволами Скачать торрент  

кал или жыр?pb.wtf



13-08-2017 11:43 Парни со стволами Скачать торрент  

Почему Парни со ствоалми а не Боевые псы?pb.wtf



14-08-2017 03:32 Парни со стволами Скачать торрент  

edapush писал(а):

кал или жыр?

Хорошая комедия, на 1 раз посмотреть вечерком самое оноpb.wtf



    Дорогой пользователь! Огромная просьба, поблагодарите релизера, оцените раздачу и оставьте свои комментарий, если Вы скачали Парни со стволами через торрент бесплатно! Внесите свою лепту в развитие PiratBit!
    Комментировать посты могут только пользователи прошедшие не сложную регистрацию
    Показать сообщения:    

    Парни со стволами через торрент
    Скачать бесплатно Парни со стволами
    Парни со стволами скачать торрент
    Парни со стволами смотреть онлайн
    Cкачать фильм Парни со стволами бесплатно
    Парни со стволами скачать торрент в хорошем качестве
    Парни со стволами смотреть онлайн бесплатно в хорошем качестве


    Вы не можете начинать темы
    Вы не можете отвечать на сообщения
    Вы не можете редактировать свои сообщения
    Вы не можете удалять свои сообщения
    Вы не можете голосовать в опросах
    Вы не можете прикреплять файлы к сообщениям
    Вы можете скачивать файлы