MEGA SALE -50% FORZA HORIZON 4 ULTIMATE+ВСЕ DLC+ОНЛАЙН всего за 599р. 299 руб. (супер цена). Внимание количество ограничено!!!

iTunes

1+1

iTunes

мы

iTunes

1

iTunes

Чернобыль

iTunes

Ральф против интернета

Лицензия

ПШазам

Лицензия

Игра престолов

Лицензия

30
pack

ВАЖНО

!!Акция!!

Alien_RageХит недели

RePack

Resident Evil 21

ИГРА 18+

pack

RePack

Metro:Exodus

!!Акция!!

Alien_Rage

RePack

fifa19

RePack

Assassins Creed: Odyssey

RePack

NEED FOR SPEED™ PAYBACK

3 сезон

9 сезон

Бесстыжие 9 сезон

Все сериалы

все сериалы на PB.wtf

RePack

FAR CRY 5
Ребята, катастрофически не хватает 7730р. для оплаты серверов за АВГУСТ (всвязи с блокировками трафик упал в 3 раза), 1-2р., выручайте.
  

Аппалуза / The Appaloosa (Сидни Дж. Фьюри) [1966 г., Вестерн, экранизация, DVDRip-AVC, Профессиональный (многоголосый)] от ExKinoRay pb.wtf

Аппалуза через торрент pb.wtf

Качают: 2 [ 0 KB/s ]
Размер: 1.97 GB | Добавлен: 2 года 1 мес. назад | Торрент скачан:19 раз
Скачать  

10-08-2017 14:20 Аппалуза Скачать торрент  

Аппалуза / The Appaloosa
Год выпуска: 1966
Страна: США
Жанр: Вестерн, экранизация
Продолжительность: 01:34:29
Перевод: Профессиональный (многоголосый)

Режиссер: Сидни Дж. Фьюри

Премьера в мире: 14 сентября 1966

rating

В ролях: Марлон Брандо, Анженетт Коме, Джон Сэксон, Эмилио Фернандес, Алекс Монтойа, Мириам Колон, Рафаэль Кампос, Фрэнк Сильвера, Ларри Д. Мэнн

Описание: Американский ковбой Мэтт Флетчер оскорблён главарем бандитской шайки Чуи Медином. Мерзавец украл у него лошадь, и Флетчер пытается вернуть её, а также обезвредить всю банду. Действие этого спокойного вестерна происходит в 70-х годах прошлого века. Брандо разыскивает своего коня, украденного мексиканским бандитом. Прекрасная операторская работа Расселла Метти. Экранизация произведения Роберта Б. Паркера.

Доп. информация: Перевод: Профессиональный многоголосый (5-й канал СПб), авторский одноголосый (Сергей Кузнецов)

Качество: DVDRip-AVC
Формат: MKV
Видео кодек: MPEG4
Аудио кодек: AC3
Видео: MPEG-4 AVC, 2400 Кбит/с, 720x436@1024x436, 25 кадров/сек
Аудио#1: Русский (AC3, 2 ch, 192 Кбит/с, 48 КГц) - 5-й канал
Аудио#2: Русский (AC3, 2 ch, 192 Кбит/с, 48 КГц) - Кузнецов
Аудио#3: Английский (AC3, 2 ch, 192 Кбит/с, 48 КГц)
Релиз от:




raw [info]: 720x436p 64:45 @ 25/1 fps (cfr)
x264 [info]: using SAR=64/45
x264 [info]: using cpu capabilities: MMX2 SSE2Fast LZCNT
x264 [info]: profile High, level 4.1
x264 [info]: frame I:1076 Avg QP:15.83 size: 53773
x264 [info]: frame P:26625 Avg QP:18.13 size: 23987
x264 [info]: frame B:114040 Avg QP:19.70 size: 8808
x264 [info]: consecutive B-frames: 1.3% 1.3% 4.9% 7.9% 8.0% 67.9% 3.1% 1.0% 1.8% 0.4% 0.5% 1.5% 0.1% 0.1% 0.0% 0.0% 0.0%
-----
Общее
Уникальный идентификатор : 247086007724082731241406628885277776512 (0xB9E308BB87D8E1908B19B585D0691A80)
Полное имя : D:\Relizes\Appaloosa.1966.DVDRip-AVC.ExKinoRay.mkv
Формат : Matroska
Версия формата : Version 2
Размер файла : 1,97 Гбайт
Продолжительность : 1 ч. 34 м.
Общий поток : 2978 Кбит/сек
Дата кодирования : UTC 2017-08-10 11:56:47
Программа кодирования : mkvmerge v7.8.0 ('River Man') 32bit built on Apr 3 2015 12:11:22
Библиотека кодирования : libebml v1.3.1 + libmatroska v1.4.2

Видео
Идентификатор : 1
Формат : AVC
Формат/Информация : Advanced Video Codec
Профиль формата : High@L4.1
Параметр CABAC формата : Да
Параметр ReFrames формата : 14 кадров
Идентификатор кодека : V_MPEG4/ISO/AVC
Продолжительность : 1 ч. 34 м.
Битрейт : 2400 Кбит/сек
Ширина : 720 пикселей
Высота : 436 пикселей
Соотношение сторон : 2,35:1
Режим частоты кадров : Постоянный
Частота кадров : 25,000 кадров/сек
Цветовое пространство : YUV
Субдискретизация насыщенности : 4:2:0
Битовая глубина : 8 бит
Тип развёртки : Прогрессивная
Бит/(Пиксели*Кадры) : 0.306
Размер потока : 1,55 Гбайт (79%)
Библиотека кодирования : x264 core 148 r2638 7599210
Настройки программы : cabac=1 / ref=14 / deblock=1:-2:-2 / analyse=0x3:0x133 / me=umh / subme=10 / psy=1 / psy_rd=1.05:0.15 / mixed_ref=1 / me_range=32 / chroma_me=1 / trellis=2 / 8x8dct=1 / cqm=0 / deadzone=21,11 / fast_pskip=0 / chroma_qp_offset=-3 / threads=4 / lookahead_threads=1 / sliced_threads=0 / nr=0 / decimate=0 / interlaced=0 / bluray_compat=0 / constrained_intra=0 / bframes=16 / b_pyramid=2 / b_adapt=2 / b_bias=0 / direct=3 / weightb=1 / open_gop=0 / weightp=2 / keyint=250 / keyint_min=25 / scenecut=40 / intra_refresh=0 / rc=2pass / mbtree=0 / bitrate=2400 / ratetol=1.0 / qcomp=0.60 / qpmin=0 / qpmax=69 / qpstep=4 / cplxblur=20.0 / qblur=0.5 / ip_ratio=1.40 / pb_ratio=1.30 / aq=1:1.00
Язык : English
Default : Да
Forced : Нет
Цветовой диапазон : Limited
Основные цвета : BT.601 NTSC
Характеристики трансфера : BT.601
Коэффициенты матрицы : BT.601

Аудио #1
Идентификатор : 2
Формат : AC-3
Формат/Информация : Audio Coding 3
Расширение режима : CM (complete main)
Параметр Endianness формата : Big
Идентификатор кодека : A_AC3
Продолжительность : 1 ч. 34 м.
Вид битрейта : Постоянный
Битрейт : 192 Кбит/сек
Каналы : 2 канала
Расположение каналов : Front: L R
Частота : 48,0 КГц
Частота кадров : 31,250 кадров/сек (1536 spf)
Метод сжатия : С потерями
Размер потока : 130 Мбайт (6%)
Заголовок : Профессиональный
Язык : Russian
Default : Да
Forced : Нет

Аудио #2
Идентификатор : 3
Формат : AC-3
Формат/Информация : Audio Coding 3
Расширение режима : CM (complete main)
Параметр Endianness формата : Big
Идентификатор кодека : A_AC3
Продолжительность : 1 ч. 34 м.
Вид битрейта : Постоянный
Битрейт : 192 Кбит/сек
Каналы : 2 канала
Расположение каналов : Front: L R
Частота : 48,0 КГц
Частота кадров : 31,250 кадров/сек (1536 spf)
Метод сжатия : С потерями
Размер потока : 130 Мбайт (6%)
Заголовок : Сергей Кузнецов
Язык : Russian
Default : Нет
Forced : Нет

Аудио #3
Идентификатор : 4
Формат : AC-3
Формат/Информация : Audio Coding 3
Расширение режима : CM (complete main)
Параметр Endianness формата : Big
Идентификатор кодека : A_AC3
Продолжительность : 1 ч. 34 м.
Вид битрейта : Постоянный
Битрейт : 192 Кбит/сек
Каналы : 2 канала
Расположение каналов : Front: L R
Частота : 48,0 КГц
Частота кадров : 31,250 кадров/сек (1536 spf)
Метод сжатия : С потерями
Размер потока : 130 Мбайт (6%)
Язык : English
Default : Нет
Forced : Нет

pb.wtf



Скачать Аппалуза через торрент http://s019.radikal.ru/i625/1708/59/5d8a47c87206.jpg Скачать фильм Аппалуза через торрент бесплантно в хорошем качестве Описание: Американский ковбой Мэтт Флетчер оскорблён главарем бандитской шайки Чуи Медином. Мерзавец украл у него лошадь, и Флетчер ... 9.8 10 5
Info! Золотая раздача, скачанное не засчитывается.
Торрент: Зарегистрирован [2017-08-10 14:20] · скачан: 19 раз
Статус: √ проверено
Размер: 1.97 GB
Как cкачать? Как скачать Аппалуза через торрент | qTorrent


>> Регистрируемся здесь <<






Отзывы и комментарии о схеме читаем и пишем здесь: ---> Отзывы и комментарии о схеме

Новые благодарочки в телеграм довольных пользователей:
скриншот   скриншот   скриншот   скриншот   скриншот

11-08-2017 00:19 Аппалуза Скачать торрент  

Топик был перенесен из форума Оформление раздач (Кино, Видео и ТВ) в форум Фильмы до 2000 г.


Enigma2010pb.wtf



13-08-2017 15:40 Аппалуза Скачать торрент  

Великолепный фильм, таких замечательных вестернов не более двух десятков за всю историю кино. Брандо великолепен, блистателен, неподражаем. Режиссер проявил массу внимания к деталям, смотреть надо внимательно. Всем любителям кино обязательно стоит посмотреть этот фильм. Качество нормальное, спасибо за раздачу.pb.wtf



08-01-2018 17:36 Аппалуза Скачать торрент  

rimins2 писал(а):

Великолепный фильм, таких замечательных вестернов не более двух десятков за всю историю кино. Брандо великолепен, блистателен, неподражаем. Режиссер проявил массу внимания к деталям, смотреть надо внимательно. Всем любителям кино обязательно стоит посмотреть этот фильм. Качество нормальное, спасибо за раздачу.

поддерживаю на все 100!pb.wtf



    Дорогой пользователь! Огромная просьба, поблагодарите релизера, оцените раздачу и оставьте свои комментарий, если Вы скачали Аппалуза через торрент бесплатно! Внесите свою лепту в развитие PiratBit!
    Комментировать посты могут только пользователи прошедшие не сложную регистрацию
    Показать сообщения:    

    Аппалуза через торрент
    Скачать бесплатно Аппалуза
    Аппалуза скачать торрент
    Аппалуза смотреть онлайн
    Cкачать фильм Аппалуза бесплатно
    Аппалуза скачать торрент в хорошем качестве
    Аппалуза смотреть онлайн бесплатно в хорошем качестве


    Вы не можете начинать темы
    Вы не можете отвечать на сообщения
    Вы не можете редактировать свои сообщения
    Вы не можете удалять свои сообщения
    Вы не можете голосовать в опросах
    Вы не можете прикреплять файлы к сообщениям
    Вы можете скачивать файлы